»
»

Скачать фильм Дэнни Цепной Пес / Unleashed (Луи Летерье) [2005, боевик, триллер, драма, криминал, BDRip-AVC] VO [Solod] - торрент

Скачать фильм через торрент бесплатно. Фильм доступен на нашем торрент-трекере бесплатно, без регистрации и смс.

Статистика раздачи
1 [ 0 b/s ] ↑ 2.0 GB ↓ 0 [ 0 b/s ]
Автор Сообщение
Eugeen.Solod
2016-10-12 20:15
Дэнни Цепной Пес / Unleashed
Дэнни Цепной Пес / Unleashed
Перевод: Любительский (одноголосый) Solod
Субтитры: русские, английские

Формат: BDRip-AVC, MKV, H.264, AC3
Страна: Франция, Великобритания, США
Режиссер: Луи Летерье
Жанр: боевик, триллер, драма, криминал
Продолжительность: 01:42:46
Год выпуска: 2005
В ролях: Джет Ли, Морган Фриман, Боб Хоскинс, Керри Кондон, Винсент Риган, Дилан Браун, Тамер Хассан, Майкл Дженн, Филлида Ло, Кэрол Энн Уилсон

Описание: Дэнни постоянно ходит в ошейнике, ест и спит в ошейнике, практически круглые сутки проводит в ошейнике. Именно так воспитал его Барт, гангстер из Глазго, который не брезгует никакими методами для достижения поставленных целей. Когда ему длительное время не отдают долг, у Барта лопается терпение и тогда он снимает с Дэнни ошейник. Именно в такие мгновения Дэнни превращается в настоящую собаку, в некую адскую смесь неудержимого боевого робота и жестокого зверя. Не нашлось еще ни одного соперника, равного Дэнни в сражении. Парень не знает иной жизни, кроме смертельной битвы или полусонного существования в ошейнике. Но однажды Дэнни оказывается в доме слепого пианиста Сэма, где узнает, что есть жизнь, наполненная звуками и чувствами.



Видео: 1024x436 (2.35:1), 23.976 fps, AVC(H264), High@L4.1, 2400 kbps, 0.224 bpp
Аудио: 48.0 kHz, AC3 Dolby Digital, 3/2 (L,C,R,l,r) + LFE ch, 448 kbps

Release Group:
MI
Код:

General
Unique ID : 335948019378970907494261858949590669563 (0xFCBD3C2ACAC19135BAE74FB9E573D8FB)
Complete name : unleashed.danny.the.dog.2005.1024.solod.rus.5.1.mkv
Format : Matroska
Format version : Version 4 / Version 2
File size : 2.04 GiB
Duration : 1 h 42 min
Overall bit rate : 2 846 kb/s
Movie name : Unleashed / Danny The Dog 2005 | Solod
Released date : 2005
Encoded date : UTC 2016-10-06 17:01:39 / UTC 2016-09-05T10:29:58Z
Writing application : mkvmerge v9.4.2 ('So High') 64bit
Writing library : libebml v1.3.4 + libmatroska v1.4.5 / Lavf55.12.0

Video
ID : 1
Format : AVC
Format/Info : Advanced Video Codec
Format profile : High@L4.1
Format settings, CABAC : Yes
Format settings, ReFrames : 10 frames
Codec ID : V_MPEG4/ISO/AVC
Duration : 1 h 42 min
Bit rate : 2 400 kb/s
Width : 1 024 pixels
Height : 436 pixels
Display aspect ratio : 2.35:1
Original display aspect ratio : 2.35:1
Frame rate mode : Constant
Frame rate : 23.976 (24000/1001) FPS
Color space : YUV
Chroma subsampling : 4:2:0
Bit depth : 8 bits
Scan type : Progressive
Bits/(Pixel*Frame) : 0.224
Stream size : 1.68 GiB (82%)
Writing library : x264 core 148
Encoding settings : cabac=1 / ref=10 / deblock=1:-2:-2 / analyse=0x3:0x113 / me=umh / subme=11 / psy=1 / psy_rd=1,00:0,00 / mixed_ref=1 / me_range=24 / chroma_me=1 / trellis=2 / 8x8dct=1 / cqm=0 / deadzone=21,11 / fast_pskip=1 / chroma_qp_offset=-2 / threads=6 / lookahead_threads=1 / sliced_threads=0 / nr=0 / decimate=1 / interlaced=0 / bluray_compat=0 / constrained_intra=0 / bframes=11 / b_pyramid=2 / b_adapt=1 / b_bias=0 / direct=1 / weightb=1 / open_gop=0 / weightp=2 / keyint=240 / keyint_min=24 / scenecut=40 / intra_refresh=0 / rc_lookahead=40 / rc=2pass / mbtree=1 / bitrate=2400 / ratetol=1,0 / qcomp=0,60 / qpmin=0 / qpmax=69 / qpstep=4 / cplxblur=20,0 / qblur=0,5 / vbv_maxrate=62500 / vbv_bufsize=78125 / nal_hrd=none / filler=0 / ip_ratio=1,40 / aq=1:1,00
Default : Yes
Forced : No
Color range : Limited
Color primaries : BT.709
Transfer characteristics : BT.709
Matrix coefficients : BT.709
Statistics Tags Issue : mkvmerge v9.4.2 ('So High') 64bit 2016-10-06 17:01:39 / mkvmerge v9.4.2 ('So High') 64bit 2016-10-06 17:01:39 / UTC 2016-09-05T10:29:58Z
FromStats_BitRate : 2395664
FromStats_Duration : 01:42:45.993000000
FromStats_FrameCount : 147836
FromStats_StreamSize : 1846456271

Audio
ID : 2
Format : AC-3
Format/Info : Audio Coding 3
Mode extension : CM (complete main)
Format settings, Endianness : Big
Codec ID : A_AC3
Duration : 1 h 42 min
Bit rate mode : Constant
Bit rate : 448 kb/s
Channel(s) : 6 channels
Channel positions : Front: L C R, Side: L R, LFE
Sampling rate : 48.0 kHz
Frame rate : 31.250 FPS (1536 spf)
Compression mode : Lossy
Delay relative to video : -83 ms
Stream size : 329 MiB (16%)
Title : vo solod
Language : Russian
Default : Yes
Forced : No
Statistics Tags Issue : mkvmerge v9.4.2 ('So High') 64bit 2016-10-06 17:01:39 / mkvmerge v9.4.2 ('So High') 64bit 2016-10-06 17:01:39 / UTC 2016-09-05T10:29:58Z
FromStats_BitRate : 448000
FromStats_Duration : 01:42:46.016000000
FromStats_FrameCount : 192688
FromStats_StreamSize : 345296896

Text #1
ID : 3
Format : UTF-8
Codec ID : S_TEXT/UTF8
Codec ID/Info : UTF-8 Plain Text
Title : rus full bd
Language : Russian
Default : No
Forced : No
Statistics Tags Issue : mkvmerge v9.4.2 ('So High') 64bit 2016-10-06 17:01:39 / mkvmerge v9.4.2 ('So High') 64bit 2016-10-06 17:01:39 / UTC 2016-09-05T10:29:58Z
FromStats_BitRate : 76
FromStats_Duration : 01:35:39.775000000
FromStats_FrameCount : 1116
FromStats_StreamSize : 55030

Text #2
ID : 4
Format : UTF-8
Codec ID : S_TEXT/UTF8
Codec ID/Info : UTF-8 Plain Text
Title : rus full bd 2
Language : Russian
Default : No
Forced : No
Statistics Tags Issue : mkvmerge v9.4.2 ('So High') 64bit 2016-10-06 17:01:39 / mkvmerge v9.4.2 ('So High') 64bit 2016-10-06 17:01:39 / UTC 2016-09-05T10:29:58Z
FromStats_BitRate : 78
FromStats_Duration : 01:33:36.193000000
FromStats_FrameCount : 1122
FromStats_StreamSize : 55194

Text #3
ID : 5
Format : UTF-8
Codec ID : S_TEXT/UTF8
Codec ID/Info : UTF-8 Plain Text
Title : eng full
Language : English
Default : No
Forced : No
Statistics Tags Issue : mkvmerge v9.4.2 ('So High') 64bit 2016-10-06 17:01:39 / mkvmerge v9.4.2 ('So High') 64bit 2016-10-06 17:01:39 / UTC 2016-09-05T10:29:58Z
FromStats_BitRate : 51
FromStats_Duration : 01:33:10.333000000
FromStats_FrameCount : 1238
FromStats_StreamSize : 36023

Menu
00:00:00.000 : :Chapter 1
00:05:37.629 : :Chapter 2
00:09:15.179 : :Chapter 3
00:13:18.589 : :Chapter 4
00:20:33.190 : :Chapter 5
00:25:00.290 : :Chapter 6
00:27:27.145 : :Chapter 7
00:31:56.789 : :Chapter 8
00:36:01.451 : :Chapter 9
00:41:50.800 : :Chapter 10
00:47:50.492 : :Chapter 11
00:51:41.556 : :Chapter 12
00:56:04.986 : :Chapter 13
01:00:29.834 : :Chapter 14
01:08:18.469 : :Chapter 15
01:14:11.905 : :Chapter 16
01:19:59.419 : :Chapter 17
01:26:22.302 : :Chapter 18
01:33:48.331 : :Chapter 19
01:35:48.117 : :Chapter 20


Информация о торренте:
Размер содержимого: 2.0 GB
Скачан: 960 раз
Статус: Проверен
Зарегистрирован на трекере: 2016-10-12 19:15
Скачать торрент


Поддержи раздачу — поставь лайк:
Т_А_Н_К_И_С_Т_
2016-10-12 22:00
Хороший фильмец
Tesska1
2018-02-09 15:14
всем,всем,всем - качать, смотреть!
Писать комментарии на нашем торрент-трекере могут только зарегистрированные пользователи.
Зарегистрируйтесь или авторизируйтесь на сайте.