»
»

Скачать фильм Фокусник (Петр Тодоровский) / [1967, драма, DVDRip-AVC] - торрент

Скачать через торрент фильм вы можете, нажав на синюю кнопку. Фильм доступен на нашем торрент-трекере бесплатно, без регистрации и смс.

Статистика раздачи
79 [ 2.0 KB/s ] ↑ 1.2 GB ↓ 0 [ 0 b/s ]
Автор Сообщение
BLIZNEC W
2019-01-12 11:32
Фокусник
Фокусник Формат: DVDRip-AVC, MKV, H.264, AC3
Режиссер: Петр Тодоровский
Жанр: драма
Продолжительность: 01:14:32
Год выпуска: 1967

В ролях: Зиновий Гердт, Алла Ларионова, Ольга Гобзева, Евгений Леонов, Леонид Дьячков, Владимир Басов, Светлана Харитонова, Эдуард Аберт, О.Герасимов, Валентина Титова, Людмила Гладунко, К.Зайцев, И.Дровосекова

Описание: В маленьком провинциальном городке в красном уголке студенческого общежития выступал фокусник Виктор Михайлович Кукушкин. Виктор Михайлович уже не молод, но очень застенчив и запальчив. А в общем он человек добрый, и поэтому - сильный. Его фокусы не отличались сложностью, и контакта между ним и залом не было. Но именно этот вечер послужил началом дружбы между фокусником и студентами. Виктор Михайлович стремится завоевать уважение своей взрослой дочери, но этого не получается. Однажды в его жизни появляется прекрасная женщина Елена. Дело идет к свадьбе, но срабатывает его принципиальность и во время первого семейного торжества Кукушкин ссорится с начальником цирка. Свадьба расстраивается, а неприкаянный, но гордый и счастливый циркач показывает фокусы прохожим и дарит детям апельсины...

Рейтинг и доп. информация:


Видео: 712х430@1018x430, (2,35:1), 25 fps, AVC MPEG-4 (x264), High@L4.1 ~ 2200 kbps , 0.287 bit/pixel
Аудио: 48 kHz, АС3, 2/0 (L,R), ~192.00 kbps avg
MediaInfo
x264 [info]: frame I:661 Avg QP:14.20 size: 57539
x264 [info]: frame P:26057 Avg QP:16.95 size: 23537
x264 [info]: frame B:85092 Avg QP:18.18 size: 6804

Общее
Уникальный идентификатор : 227419119795560205108566983488049616240 (0xAB17544B4DC9DF54B6EAB91EC3059570)
Полное имя : J:сссрФокусник 1967_DVDRip-AVC_KORSAR.mkv
Формат : Matroska
Версия формата : Version 2
Размер файла : 1,25 Гбайт
Продолжительность : 1 ч. 14 м.
Общий поток : 2395 Кбит/сек
Дата кодирования : UTC 2019-01-11 11:45:47
Программа кодирования : mkvmerge v5.8.0 ('No Sleep / Pillow') built on Sep 2 2012 15:37:04
Библиотека кодирования : libebml v1.2.3 + libmatroska v1.3.0

Видео
Идентификатор : 1
Формат : AVC
Формат/Информация : Advanced Video Codec
Профиль формата : High@L4.1
Настройки формата : CABAC / 16 Ref Frames
Параметр CABAC формата : Да
Параметр RefFrames формата : 16 кадров
Идентификатор кодека : V_MPEG4/ISO/AVC
Продолжительность : 1 ч. 14 м.
Битрейт : 2200 Кбит/сек
Ширина : 712 пикселей
Высота : 430 пикселей
Соотношение сторон : 2,35:1
Соотношение сторон в оригинале : 2,35:1
Режим частоты кадров : Постоянный
Частота кадров : 25,000 кадров/сек
Цветовое пространство : YUV
Субдискретизация насыщенности : 4:2:0
Битовая глубина : 8 бит
Тип развёртки : Прогрессивная
Бит/(Пиксели*Кадры) : 0.287
Размер потока : 1,12 Гбайт (90%)
Библиотека кодирования : x264 core 152 r2851kMod ba24899
Настройки программы : cabac=1 / ref=16 / deblock=1:-2:-1 / analyse=0x3:0x133 / me=umh / subme=11 / psy=1 / fade_compensate=0.00 / psy_rd=1.05:0.12 / mixed_ref=1 / me_range=48 / chroma_me=1 / trellis=2 / 8x8dct=1 / cqm=0 / deadzone=21,11 / fast_pskip=0 / chroma_qp_offset=-3 / threads=12 / lookahead_threads=3 / sliced_threads=0 / nr=0 / decimate=0 / interlaced=0 / bluray_compat=0 / constrained_intra=0 / bframes=11 / b_pyramid=2 / b_adapt=2 / b_bias=0 / direct=3 / weightb=1 / open_gop=0 / weightp=2 / keyint=250 / keyint_min=25 / scenecut=40 / intra_refresh=0 / rc_lookahead=40 / rc=2pass / mbtree=0 / bitrate=2200 / ratetol=1.0 / qcomp=0.60 / qpmin=0 / qpmax=39 / qpstep=4 / cplxblur=20.0 / qblur=0.5 / vbv_maxrate=50000 / vbv_bufsize=62500 / nal_hrd=none / filler=0 / ip_ratio=1.25 / pb_ratio=1.30 / aq=1:1.00
Язык : English
Default : Да
Forced : Нет
Цветовой диапазон : Limited
Основные цвета : BT.601 PAL
Характеристики трансфера : BT.470 System B, BT.470 System G
Коэффициенты матрицы : BT.470 System B, BT.470 System G

Аудио
Идентификатор : 2
Формат : AC-3
Формат/Информация : Audio Coding 3
Параметр Endianness формата : Big
Идентификатор кодека : A_AC3
Продолжительность : 1 ч. 14 м.
Вид битрейта : Постоянный
Битрейт : 192 Кбит/сек
Каналы : 2 канала
Расположение каналов : Front: L R
Частота : 48,0 КГц
Частота кадров : 31,250 кадров/сек (1536 SPF)
Битовая глубина : 16 бит
Метод сжатия : С потерями
Размер потока : 102 Мбайт (8%)
Язык : Russian
Default : Да
Forced : Нет

Меню
00:00:00.000 : en:Chapter 1
00:09:25.080 : en:Chapter 2
00:18:32.440 : en:Chapter 3
00:23:22.680 : en:Chapter 4
00:28:51.320 : en:Chapter 5
00:35:06.120 : en:Chapter 6
00:45:03.760 : en:Chapter 7
00:57:12.520 : en:Chapter 8
01:01:28.760 : en:Chapter 9
01:06:51.760 : en:Chapter 10

Информация о торренте:
Размер содержимого: 1.2 GB
Скачан: 99 раз
Статус: Проверен
Зарегистрирован на трекере: 2019-01-12 10:32
Скачать торрент


Поддержи раздачу — поставь лайк:
BLIZNEC W
2019-01-12 10:32
Интересного и приятного просмотра!!!

Мои раздачи
Писать комментарии на нашем торрент-трекере могут только зарегистрированные пользователи.
Зарегистрируйтесь или авторизируйтесь на сайте.