»
»

Скачать фильм Жизнь и удивительные приключения Робинзона Крузо (Станислав Говорухин) / [1972, приключения, DVDRip-AVC] - торрент

Нажмите синюю кнопку, чтобы cкачать бесплатно через торрент фильм. Фильм доступен на нашем торрент-трекере бесплатно, без регистрации и смс.

Статистика раздачи
107 [ 13.0 KB/s ] ↑ 2.7 GB ↓ 1 [ 98.0 KB/s ]
Автор Сообщение
BLIZNEC W
2019-01-12 10:27
Жизнь и удивительные приключения Робинзона Крузо
Жизнь и удивительные приключения Робинзона Крузо Формат: DVDRip-AVC, MKV, H.264, AC3
Режиссер: Станислав Говорухин
Жанр: приключения
Продолжительность: 01:27:15
Год выпуска: 1972

В ролях: Леонид Куравлёв, Ираклий Хизанишвили, Евгений Жариков, Владлен Паулус, Алексей Сафонов, Владимир Маренков, Валентин Кулик, Сергей Габниа, Владимир Гусев, Нурбей Камкия, Эрменгельд Коновалов, Владимир Мальцев

Описание: По роману Д.Дефо. Едва ли найдется человек, не узнавший в детстве романтическую историю отважного мореплавателя, который чудом спасся после кораблекрушения и провел 28 лет на необитаемом острове. Популярность знаменитого романа во многом способствовала зрительскому успеху фильма, который повествует о таких вечных ценностях, как доброта и человечность, смелость и мужество, умение не сдаваться в самом трудном положении и быть верным другом...

Рейтинг и доп. информация:


Видео: 716х412@1018x412, (2,472), 25 fps, AVC MPEG-4 (x264), High@L4.1 ~ 4000 kbps , 0.542 bit/pixel
Аудио: 48 kHz, AC3 Dolby Digital, 3/2 (L,C,R,l,r) + LFE ch, ~384 kbps
MediaInfo
x264 [info]: frame I:692 Avg QP:17.41 size: 82463
x264 [info]: frame P:37437 Avg QP:19.85 size: 38930
x264 [info]: frame B:92759 Avg QP:21.33 size: 11891

Общее
Уникальный идентификатор : 204807103808729267237412490976850941135 (0x9A1469D4E66433DFB4E99F7E45B514CF)
Полное имя : H:Жизнь и удивительные приключения Робинзона Крузо 1972_DVDRip-AVC_KORSAR.mkv
Формат : Matroska
Версия формата : Version 2
Размер файла : 2,67 Гбайт
Продолжительность : 1 ч. 27 м.
Общий поток : 4384 Кбит/сек
Дата кодирования : UTC 2019-01-10 20:10:59
Программа кодирования : mkvmerge v5.8.0 ('No Sleep / Pillow') built on Sep 2 2012 15:37:04
Библиотека кодирования : libebml v1.2.3 + libmatroska v1.3.0

Видео
Идентификатор : 1
Формат : AVC
Формат/Информация : Advanced Video Codec
Профиль формата : High@L4.1
Настройки формата : CABAC / 15 Ref Frames
Параметр CABAC формата : Да
Параметр RefFrames формата : 15 кадров
Идентификатор кодека : V_MPEG4/ISO/AVC
Продолжительность : 1 ч. 27 м.
Битрейт : 4000 Кбит/сек
Ширина : 716 пикселей
Высота : 412 пикселей
Соотношение сторон : 2,471
Соотношение сторон в оригинале : 2,472
Режим частоты кадров : Постоянный
Частота кадров : 25,000 кадров/сек
Цветовое пространство : YUV
Субдискретизация насыщенности : 4:2:0
Битовая глубина : 8 бит
Тип развёртки : Прогрессивная
Бит/(Пиксели*Кадры) : 0.542
Размер потока : 2,38 Гбайт (89%)
Библиотека кодирования : x264 core 152 r2851kMod ba24899
Настройки программы : cabac=1 / ref=15 / deblock=1:-2:-2 / analyse=0x3:0x133 / me=umh / subme=11 / psy=1 / fade_compensate=0.00 / psy_rd=1.02:0.04 / mixed_ref=1 / me_range=48 / chroma_me=1 / trellis=2 / 8x8dct=1 / cqm=0 / deadzone=21,11 / fast_pskip=0 / chroma_qp_offset=-3 / threads=12 / lookahead_threads=2 / sliced_threads=0 / nr=0 / decimate=0 / interlaced=0 / bluray_compat=0 / constrained_intra=0 / bframes=9 / b_pyramid=2 / b_adapt=2 / b_bias=0 / direct=3 / weightb=1 / open_gop=0 / weightp=2 / keyint=250 / keyint_min=25 / scenecut=40 / intra_refresh=0 / rc_lookahead=40 / rc=2pass / mbtree=0 / bitrate=4000 / ratetol=1.0 / qcomp=0.60 / qpmin=0 / qpmax=39 / qpstep=4 / cplxblur=20.0 / qblur=0.5 / vbv_maxrate=50000 / vbv_bufsize=62500 / nal_hrd=none / filler=0 / ip_ratio=1.25 / pb_ratio=1.30 / aq=1:0.90
Язык : English
Default : Да
Forced : Нет
Цветовой диапазон : Limited
Основные цвета : BT.601 PAL
Характеристики трансфера : BT.470 System B, BT.470 System G
Коэффициенты матрицы : BT.470 System B, BT.470 System G

Аудио
Идентификатор : 2
Формат : AC-3
Формат/Информация : Audio Coding 3
Параметр Endianness формата : Big
Идентификатор кодека : A_AC3
Продолжительность : 1 ч. 27 м.
Вид битрейта : Постоянный
Битрейт : 384 Кбит/сек
Каналы : 6 каналов
Расположение каналов : Front: L C R, Side: L R, LFE
Частота : 48,0 КГц
Частота кадров : 31,250 кадров/сек (1536 SPF)
Битовая глубина : 16 бит
Метод сжатия : С потерями
Задержка видео : 24 мс.
Размер потока : 240 Мбайт (9%)
Язык : Russian
Default : Да
Forced : Нет

Меню
00:00:00.000 : en:Chapter 1
00:02:11.920 : en:Chapter 2
00:09:59.440 : en:Chapter 3
00:21:50.320 : en:Chapter 4
00:29:14.800 : en:Chapter 5
00:43:29.200 : en:Chapter 6
00:55:04.720 : en:Chapter 7
01:06:47.920 : en:Chapter 8
01:17:09.520 : en:Chapter 9
01:27:00.000 : en:Chapter 10

Информация о торренте:
Размер содержимого: 2.7 GB
Скачан: 116 раз
Статус: Проверен
Зарегистрирован на трекере: 2019-01-12 09:27
Скачать торрент


Поддержи раздачу — поставь лайк:
BLIZNEC W
2019-01-12 09:27
Интересного и приятного просмотра!!!

Мои раздачи
Писать комментарии на нашем торрент-трекере могут только зарегистрированные пользователи.
Зарегистрируйтесь или авторизируйтесь на сайте.