»
»

Скачать фильм Гоголь. Начало (Егор Баранов) / [2017, приключения, триллер, детектив, мистика, BDRip-AVC] - торрент

Торрент можно скачать, нажав синюю кнопку ниже. Фильм доступен на нашем торрент-трекере бесплатно, без регистрации и смс.

Статистика раздачи
113 [ 0 b/s ] ↑ 1.7 GB ↓ 0 [ 0 b/s ]
Автор Сообщение
BLIZNEC W
2019-01-11 23:18
Гоголь. Начало
Гоголь. Начало Формат: BDRip-AVC, MKV, H.264, AC3
Режиссер: Егор Баранов
Жанр: приключения, триллер, детектив, мистика
Продолжительность: 01:46:47
Год выпуска: 2017

В ролях: Александр Петров (III), Олег Меньшиков, Евгений Стычкин, Артём Сучков, Таисия Вилкова, Юлия Франц, Ян Цапник, Евгений Сытый, Сергей Бадюк, Артём Ткаченко, Марта Тимофеева, Анастасия Попова (II), Павел Григорьев, Сергей Линьков, Филипп Дьячков (II), Андрей Пынзару, Ольга Попова (II), Артём Ефремов, Илья Савельев, Виталий Коваленко, Дмитрий Быковский-Ромашов, Илья Борисов, Антон Момот, Мария Мясникова, Евгений Капитонов, Беата Маковская, Валерий Рыбин, Павел Деревянко, Светлана Киреева

Описание: Казаки, ведьмы, русалки, утопленницы и другие обитатели Диканьки встречаются лицом к лицу со своим создателем Николаем Гоголем, молодым писарем из Петербурга, который страдает загадочными припадками и может общаться с персонажами из потустороннего мира. Вместе со своим начальником, блестящим столичным следователем Яковом Гуро, начинающий писатель приезжает на Полтавщину расследовать таинственные убийства девушек. Здесь же он встречает свою любовь, которой суждено сыграть роковую роль в его судьбе. Но хватит ли юному литератору духу противостоять невообразимому? Ведь по слухам, которые активно разносят напуганные местные жители, за преступлениями стоит не кто иной, как сам Дьявол в обличии черного всадника.
«Самая тёмная ночь перед рассветом»
Рейтинг и доп. информация:


Видео: 1024x432, (2.40:1), 24 fps, AVC MPEG-4 (x264), High@L4.1 ~ 1844 kbps , 0.174 bit/pixel
Аудио: 48 kHz, AC3 Dolby Digital, 3/2 (L,C,R,l,r) + LFE ch, ~448 kbps avg [лицензия]
MediaInfo
Общее
Уникальный идентификатор : 198592045040800133450566716002041368625 (0x95676FC6BAAF842A8BA7A0950D1C9031)
Полное имя : E:OlLanDGroupGogol.Nachalo.2017.BDRip(AVC).OlLanDGroup.mkv
Формат : Matroska
Версия формата : Version 2
Размер файла : 1,71 Гбайт
Продолжительность : 1 ч. 46 м.
Общий поток : 2290 Кбит/сек
Дата кодирования : UTC 2017-11-19 03:57:04
Программа кодирования : mkvmerge v7.8.0 ('River Man') 32bit built on Apr 3 2015 12:11:22
Библиотека кодирования : libebml v1.3.1 + libmatroska v1.4.2

Видео
Идентификатор : 1
Формат : AVC
Формат/Информация : Advanced Video Codec
Профиль формата : High@L4.1
Параметр CABAC формата : Да
Параметр ReFrames формата : 10 кадров
Идентификатор кодека : V_MPEG4/ISO/AVC
Продолжительность : 1 ч. 46 м.
Битрейт : 1844 Кбит/сек
Ширина : 1024 пикселя
Высота : 432 пикселя
Соотношение сторон : 2,40:1
Режим частоты кадров : Постоянный
Частота кадров : 24,000 кадра/сек
Цветовое пространство : YUV
Субдискретизация насыщенности : 4:2:0
Битовая глубина : 8 бит
Тип развёртки : Прогрессивная
Бит/(Пиксели*Кадры) : 0.174
Размер потока : 1,34 Гбайт (78%)
Библиотека кодирования : x264 core 146 r2538 121396c
Настройки программы : cabac=1 / ref=10 / deblock=1:-3:-3 / analyse=0x3:0x133 / me=umh / subme=11 / psy=1 / psy_rd=1.00:0.05 / mixed_ref=1 / me_range=48 / chroma_me=1 / trellis=2 / 8x8dct=1 / cqm=0 / deadzone=21,11 / fast_pskip=1 / chroma_qp_offset=-3 / threads=6 / lookahead_threads=1 / sliced_threads=0 / nr=0 / decimate=1 / interlaced=0 / bluray_compat=0 / constrained_intra=0 / bframes=10 / b_pyramid=2 / b_adapt=2 / b_bias=0 / direct=3 / weightb=1 / open_gop=0 / weightp=2 / keyint=240 / keyint_min=23 / scenecut=40 / intra_refresh=0 / rc_lookahead=40 / rc=2pass / mbtree=0 / bitrate=1844 / ratetol=1.0 / qcomp=0.60 / qpmin=0 / qpmax=69 / qpstep=4 / cplxblur=20.0 / qblur=0.5 / vbv_maxrate=50000 / vbv_bufsize=62500 / nal_hrd=none / filler=0 / ip_ratio=1.40 / pb_ratio=1.30 / aq=1:1.00
Язык : English
Default : Да
Forced : Нет

Аудио
Идентификатор : 2
Формат : AC-3
Формат/Информация : Audio Coding 3
Расширение режима : CM (complete main)
Параметр Endianness формата : Big
Идентификатор кодека : A_AC3
Продолжительность : 1 ч. 46 м.
Вид битрейта : Постоянный
Битрейт : 448 Кбит/сек
Каналы : 6 каналов
Расположение каналов : Front: L C R, Side: L R, LFE
Частота : 48,0 КГц
Частота кадров : 31,250 кадров/сек (1536 spf)
Битовая глубина : 16 бит
Метод сжатия : С потерями
Размер потока : 342 Мбайт (20%)
Заголовок : License
Язык : Russian
Default : Да
Forced : Нет

Меню
00:00:00.000 : en:Chapter 1
00:00:25.916 : en:Chapter 2
00:14:02.208 : en:Chapter 3
00:27:17.041 : en:Chapter 4
00:40:22.375 : en:Chapter 5
00:54:57.291 : en:Chapter 6
01:06:34.458 : en:Chapter 7
01:17:57.500 : en:Chapter 8
01:30:44.083 : en:Chapter 9

Информация о торренте:
Размер содержимого: 1.7 GB
Скачан: 282 раза
Статус: Проверен
Зарегистрирован на трекере: 2019-01-11 22:18
Скачать торрент


Поддержи раздачу — поставь лайк:
BLIZNEC W
2019-01-11 22:19
Интересного и приятного просмотра!!!

Мои раздачи
liudochka
2019-01-21 20:17
на любителя!!!!!!!!!!! снят достойно!!!!!!!!!!!
Писать комментарии на нашем торрент-трекере могут только зарегистрированные пользователи.
Зарегистрируйтесь или авторизируйтесь на сайте.