»
»

Скачать фильм Солдат и слон (Солдат и слон) / [1977, комедия, военный, DVDRip-AVC] - торрент

Скачать фильм через торрент бесплатно. Фильм доступен на нашем торрент-трекере бесплатно, без регистрации и смс.

Статистика раздачи
1 [ 0 b/s ] ↑ 1.5 GB ↓ 0 [ 0 b/s ]
Автор Сообщение
vamo
2019-01-10 13:24
Солдат и слон
Солдат и слон Формат: DVDRip-AVC, MKV, H.264, AC3
Режиссер: Солдат и слон
Жанр: комедия, военный
Продолжительность: 01:17:22
Год выпуска: 1977
В ролях: Фрунзе Мкртчян, Лаймуте Штримайтите, Стяпас Космаускас, Владимир Пицек, Владимир Рындин, И. Медведев, Г. Кришталь, Овик Ванян

Описание: Во время ожесточенных боев на территории Германии, в самый разгар штурма одного из особняков, бойцами был обнаружен… слон. Рядовому Арменаку было приказано вывести животное из-под огня. Чего только не пришлось пережить Арменаку, прежде чем он с честью выполнит задание, осознает всю серьезность и гуманность своей миссии.

[imdb=https://www.imdb.com/title/tt0410942/]

Видео: 1024x482 (2,124), 25,000 fps, AVC MPEG-4 (H.264), High@L4.1 ~2600 kbps, 0.211 bit/pixel
Аудио: 48 kHz, AC3 Dolby Digital, 2/0 (L,R) ch, ~256 kbps
Дополнительно: Сохранены оригинальные главы (чаптеры)

MediaInfo
Общее
Уникальный идентификатор : 203105973906739993775306441631923952197 (0x98CCC9A6E8EC7187C765FF12C493DA45)
Полное имя : F:\Диск\02. ФИЛЬМЫ СНГ\Солдат и слон (1977)\Soldat_i_slon (1977).mkv
Формат : Matroska
Версия формата : Version 4
Размер файла : 1,54 Гбайт
Продолжительность : 1 ч. 17 м.
Общий поток : 2850 Кбит/сек
Программа кодирования : Lavf
Библиотека кодирования : Lavf
Авторское право : [#ZsU®]
ErrorDetectionType : Per level 1
Attachments : poster.jpg
Язык : und

Видео
Идентификатор : 1
Формат : AVC
Формат/Информация : Advanced Video Codec
Профиль формата : High@L4.1
Настройки формата : CABAC / 11 Ref Frames
Параметр CABAC формата : Да
Параметр RefFrames формата : 11 кадров
Идентификатор кодека : V_MPEG4/ISO/AVC
Продолжительность : 1 ч. 17 м.
Битрейт : 2600 Кбит/сек
Ширина : 1024 пикселя
Высота : 482 пикселя
Соотношение сторон : 2,124
Режим частоты кадров : Постоянный
Частота кадров : 25,000 кадров/сек
Цветовое пространство : YUV
Субдискретизация насыщенности : 4:2:0
Битовая глубина : 8 бит
Тип развёртки : Прогрессивная
Бит/(Пиксели*Кадры) : 0.211
Размер потока : 1,37 Гбайт (89%)
Библиотека кодирования : x264 core 157 r2935 545de2f
Настройки программы : cabac=1 / ref=11 / deblock=1:-3:-3 / analyse=0x3:0x133 / me=umh / subme=11 / psy=1 / psy_rd=1.00:0.20 / mixed_ref=1 / me_range=16 / chroma_me=1 / trellis=2 / 8x8dct=1 / cqm=0 / deadzone=21,11 / fast_pskip=1 / chroma_qp_offset=-3 / threads=12 / lookahead_threads=1 / sliced_threads=0 / nr=0 / decimate=1 / interlaced=0 / bluray_compat=0 / constrained_intra=0 / bframes=11 / b_pyramid=2 / b_adapt=1 / b_bias=10 / direct=1 / weightb=1 / open_gop=0 / weightp=1 / keyint=250 / keyint_min=25 / scenecut=40 / intra_refresh=0 / rc_lookahead=40 / rc=abr / mbtree=1 / bitrate=2600 / ratetol=1.0 / qcomp=0.60 / qpmin=0 / qpmax=69 / qpstep=4 / ip_ratio=1.40 / aq=1:1.00
Default : Да
Forced : Нет
Цветовой диапазон : Limited
Основные цвета : BT.601 PAL
Характеристики трансфера : BT.470 System B/G
Коэффициенты матрицы : BT.470 System B/G

Аудио
Идентификатор : 2
Формат : AC-3
Формат/Информация : Audio Coding 3
Коммерческое название : Dolby Digital
Идентификатор кодека : A_AC3
Продолжительность : 1 ч. 17 м.
Вид битрейта : Постоянный
Битрейт : 256 Кбит/сек
Каналы : 2 канала
Channel layout : L R
Частота : 48,0 КГц
Частота кадров : 31,250 кадров/сек (1536 SPF)
Битовая глубина : 16 бит
Метод сжатия : С потерями
Размер потока : 142 Мбайт (9%)
Язык : Russian
Default : Да
Forced : Нет

Меню
00:00:00.000 : :Глава 1
00:08:30.160 : :Глава 2
00:17:09.520 : :Глава 3
00:25:09.520 : :Глава 4
00:33:20.560 : :Глава 5
00:41:47.920 : :Глава 6
00:50:10.960 : :Глава 7
00:58:03.280 : :Глава 8
01:06:05.200 : :Глава 9
01:12:57.040 : :Глава 10

Информация о торренте:
Размер содержимого: 1.5 GB
Скачан: 127 раз
Статус: Проверен
Зарегистрирован на трекере: 2019-01-10 12:24
Скачать торрент


Поддержи раздачу — поставь лайк:
Писать комментарии на нашем торрент-трекере могут только зарегистрированные пользователи.
Зарегистрируйтесь или авторизируйтесь на сайте.