»
»

Скачать сериал Путешественники, 3 сезон 1-2 серии из 10 / Travelers [IdeaFilm] (Энди Микита, Уильям Варинг, Эрик МакКормак) [2018, фантастика, триллер, драма, детектив, WEB-DLRip, Р] - торрент

Скачать сериал бесплатно через торрент. Сериал доступен на нашем торрент-трекере бесплатно, без регистрации и смс.

Статистика раздачи
5 [ 0 b/s ] ↑ 1.4 GB ↓ 2 [ 0 b/s ]
Автор Сообщение
D4IVER
2019-01-09 22:05
Путешественники / Travelers
Путешественники, 3 сезон 1-2 серии из 10 / Travelers [IdeaFilm]
Перевод: Профессиональный (многоголосый, закадровый) IdeaFilm
Субтитры: отсутствуют
Формат: WEB-DLRip, AVI, XviD, AC3
Страна: США, Канада
Режиссер: Энди Микита, Уильям Варинг, Эрик МакКормак
Жанр: Фантастика, триллер, драма, детектив
Всего серий: 10
Продолжительность: 2 х ~ 00:50:00
Год выпуска: 2018

В ролях: Неста Купер, Маккензи Портер, Джаред Абрахамсон, Рейли Долмэн, Эрик МакКормак, Патрик Гилмор, Леа Кейрнс, Дж. Алекс Бринсон, Уильям Макдональд, Дженнифер Спенс

Описание: Действие этого фантастического сериала разворачивается в далеком будущем. К тому времени жизнь человечества серьёзно изменилась. Практически всё живое на планете было уничтожено и это вынудило ученых искать способ, как исправить сложившуюся ситуацию. Среди людей осталось немного тех, кому по силам продолжать борьбу за существование. И вскоре было изобретено устройство, которое могло позволить переместить сознание в далекий двадцать первый век. Это давало оставшимся людям шанс вернуться в прошлое и попытаться спасти человечество от грядущей катастрофы...

[imdb=http://www.imdb.com/title/tt5651844/]

Видео: 720x360 (2.00:1), 23.976 fps, XviD MPEG-4 ~1668 kbps avg, 0.268 bit/pixel
Аудио #1 Rus: 48 kHz, AC3 Dolby Digital, 3/2 (L,C,R,l,r) + LFE ch, ~384 kbps

Внимание, присутствует реклама!
Раздача ведется путем добавления новых серий.

Внимание! Раздача ведётся путём добавления новых серий

Внимание! Раздача ведётся путём добавления новых серий; при каждом добавлении создаётся новый торрент. Чтобы начать докачку новой серии, пользователям необходимо сделать следующее:
(1) остановить скачивание,
(2) удалить старый торрент у себя из клиента (старые серии удалять не надо),
(3) скачать новый торрент и запустить его у себя в клиенте вместо старого, при этом указать клиенту путь в старую папку куда и должно происходить скачивание новых серий.

Ваш клиент при этом должен произвести хеширование (проверку) старой папки (если не производит сам - помогите ему сделать это), и будет докачивать только те серии которых у вас ещё нет. Старые серии при этом не удаляются, а продолжают раздаваться!

Eсли вы уже удалили старые серии, то предотвратить повторную закачку старых серий можно, отжав галочку в соответствующих местах при запуске нового торрента. По возможности, желательно не удалять старые серии как можно дольше, чтобы релизёр не столько продолжал раздавать старые серии, а смог сконцентрироваться на новых.
MediaInfo

Video
ID : 0
Format : MPEG-4 Visual
Format profile : Advanced Simple@L5
Format settings : BVOP2
Format settings, BVOP : 2
Format settings, QPel : No
Format settings, GMC : No warppoints
Format settings, Matrix : Default (H.263)
Muxing mode : Packed bitstream
Codec ID : XVID
Codec ID/Hint : XviD
Duration : 45 min 58 s
Bit rate : 1 668 kb/s
Width : 720 pixels
Height : 360 pixels
Display aspect ratio : 2.000
Frame rate : 23.976 (24000/1001) FPS
Color space : YUV
Chroma subsampling : 4:2:0
Bit depth : 8 bits
Scan type : Progressive
Compression mode : Lossy
Bits/(Pixel*Frame) : 0.268
Stream size : 549 MiB (81%)
Writing library : XviD 67

Audio
ID : 1
Format : AC-3
Format/Info : Audio Coding 3
Commercial name : Dolby Digital
Codec ID : 2000
Duration : 45 min 58 s
Bit rate mode : Constant
Bit rate : 384 kb/s
Channel(s) : 6 channels
Channel positions : Front: L C R, Side: L R, LFE
Sampling rate : 48.0 kHz
Frame rate : 31.250 FPS (1536 SPF)
Bit depth : 16 bits
Compression mode : Lossy
Stream size : 126 MiB (19%)
Alignment : Aligned on interleaves
Interleave, duration : 42 ms (1.00 video frame)
Interleave, preload duratio : 512 ms
Service kind : Complete Main

Информация о торренте:
Размер содержимого: 1.4 GB
Скачан: 205 раз
Статус: Обновляемая раздача
Зарегистрирован на трекере: 2019-01-09 21:05
Скачать торрент


Поддержи раздачу — поставь лайк:
E-mail:
* Это обновляемая раздача и мы можем вас информировать об обновлении торрента в ней.

Писать комментарии на нашем торрент-трекере могут только зарегистрированные пользователи.
Зарегистрируйтесь или авторизируйтесь на сайте.