»
»

Скачать сериал Одиночка (1-16 серии из 16) (Виктор Конисевич) / [2016, детектив, WEB-DL 1080p] - торрент

Скачать торрент сериал можно, нажав на синюю кнопку ниже. Сериал доступен на нашем торрент-трекере бесплатно, без регистрации и смс.

Статистика раздачи
161 [ 2.1 MB/s ] ↑ 27.1 GB ↓ 3 [ 15.7 MB/s ]
Автор Сообщение
BLIZNEC W
2019-01-09 11:18
Одиночка (1-16 серии из 16)
Одиночка Перевод: Не требуется, cубтитры: отсутствуют
Формат: WEB-DL 1080p, MKV, H.264, AC3
Страна: Украина
Режиссер: Виктор Конисевич
Жанр: детектив
Всего серий: 16
Продолжительность: 16 x ~ 00:45:00
Год выпуска: 2016

В ролях: Алексей Горбунов, Ванда Конисевич, Ирина Ефремова (II), Андрей Стоянов, Алиса Тункевич, Николай Боклан, Мария Климова, Андрей Исаенко, Сергей Кучера, Станислав Щёкин, Олег Школьник, Владимир Левицкий, Павел Шмарёв, Михаил Шамигулов, Борис Абрамов, Алексей Агопьян, Михаил Аугуст, Иванна Бжезинская, Александр Бондарь, Вячеслав Василюк, Алексей Власенко, Даниил Вулицкий, Владислава Гаврилюк, Борис Георгиевский, Владимир Гладкий, Юрий Гребельник, Юлия Григорьева (III), Иван Губанов, Сергей Деньга, Олег Коркушко, Дерик Дитади, Олег Драч, Елена Дудич, Александр Жуковин, Алексей Зорин, Игорь Зоров, Ярослав Игнатенко, Валентин Кисельков, Филипп Козлов, Станислав Колокольников, Виктор Конисевич, Анастасия Конисевич, Андрей Корженевский, Галина Корнеева, Тимофей Криницкий, Михаил Круль, Александр Крыжановский, Андрей Лелюх, Алиса Дебабова-Лукшина, Рустам Мазничка, Олег Москаленко, Максим Никитин, Юрий Одинокий, Александр Онищенко, Александр Онуфриев, Евгений Пашин, Владимир Пилипенко, Юрий Понзель, Геннадий Попенко, Олег Примогенов, Маргарита Савкун, Анна Сагайдачная, Сергей Солопай, Елена Скрипка, Виктор Степаненко (III), Виктор Стороженко (III), Ольга Сумская, Лариса Уманцева, Виктор Шестаков, Владимир Ямненко

Описание: Глеб с первого взгляда кажется жестким и принципиальным, его характер сложный и не снисходителен. Он привык все проблемы решать самостоятельно, держать свое слово и быть уважаемым среди знакомых и коллег. Единственное утешение и луч света в жизни Глеба Мечникова - это его дочь Кристина. Мужчина вырастил ее сам, без жены и какой-либо поддержки со стороны родных.

Рейтинг и доп. информация:


Видео: 1920х1080, (16:9), 25 fps, AVC MPEG-4 (x264), High@L4 ~ 5000 kbps , 0.099 bit/pixel
Аудио: 48 kHz, АС3, 2/0 (L,R), ~192.00 kbps avg
MediaInfo
Общее
Уникальный идентификатор : 229113440547134521492708602542331306581 (0xAC5DA4C1BBA66BF0BEDFE917CC68A255)
Полное имя : C:\Odinochka.2016.WEB-DL.(1080p).Nikolspup\Odinochka.(01.seriya.iz.16).2016.WEB-DL.(1080p).Nikolspup.mkv
Формат : Matroska
Версия формата : Version 4
Размер файла : 1,70 Гбайт
Продолжительность : 45 м. 47 с.
Общий поток : 5306 Кбит/сек
Дата кодирования : UTC 2019-01-08 15:15:31
Программа кодирования : mkvmerge v7.8.0 ('River Man') 32bit built on Mar 27 2015 16:18:02
Библиотека кодирования : libebml v1.3.1 + libmatroska v1.4.2

Видео
Идентификатор : 1
Формат : AVC
Формат/Информация : Advanced Video Codec
Профиль формата : High@L4
Настройки формата : CABAC / 4 Ref Frames
Параметр CABAC формата : Да
Параметр RefFrames формата : 4 кадра
Идентификатор кодека : V_MPEG4/ISO/AVC
Продолжительность : 45 м. 47 с.
Битрейт : 5000 Кбит/сек
Ширина : 1920 пикселей
Высота : 1080 пикселей
Соотношение сторон : 16:9
Режим частоты кадров : Постоянный
Частота кадров : 25,000 кадров/сек
Цветовое пространство : YUV
Субдискретизация насыщенности : 4:2:0
Битовая глубина : 8 бит
Тип развёртки : Прогрессивная
Бит/(Пиксели*Кадры) : 0.098
Размер потока : 1,64 Гбайт (96%)
Default : Да
Forced : Нет

Аудио
Идентификатор : 2
Формат : AC-3
Формат/Информация : Audio Coding 3
Коммерческое название : Dolby Digital
Идентификатор кодека : A_AC3
Продолжительность : 45 м. 47 с.
Вид битрейта : Постоянный
Битрейт : 192 Кбит/сек
Каналы : 2 канала
Channel layout : L R
Частота : 48,0 КГц
Частота кадров : 31,250 кадров/сек (1536 SPF)
Битовая глубина : 16 бит
Метод сжатия : С потерями
Размер потока : 62,9 Мбайт (4%)
Язык : Russian
ServiceKind/String : Complete Main
Default : Да
Forced : Нет

Информация о торренте:
Размер содержимого: 27.1 GB
Скачан: 494 раза
Статус: Проверен
Зарегистрирован на трекере: 2019-01-09 10:18
Скачать торрент


Поддержи раздачу — поставь лайк:
BLIZNEC W
2019-01-09 10:18
Интересного и приятного просмотра!!!

Мои раздачи
Писать комментарии на нашем торрент-трекере могут только зарегистрированные пользователи.
Зарегистрируйтесь или авторизируйтесь на сайте.