»
»

Скачать фильм Звездочёт (3 серии из 3) (Анатолий Тютюнник) / [1986, драма, военный, DVBRip-AVC] - торрент

Нажмите синюю кнопку, чтобы cкачать бесплатно через торрент фильм. Фильм доступен на нашем торрент-трекере бесплатно, без регистрации и смс.

Статистика раздачи
6 [ 0 b/s ] ↑ 3.3 GB ↓ 0 [ 0 b/s ]
Автор Сообщение
ярусс
2019-01-06 19:17
Звездочёт (3 серии из 3)
Звездочёт Формат: DVBRip-AVC, MKV, H.264, AC3
Страна: СССР
Режиссер: Анатолий Тютюнник
Жанр: драма, военный
Продолжительность: 01:02:35 + 01:01:38 + 01:01:18
Год выпуска: 1986
В ролях: Альбина Матвеева, Игорь Ледогоров, Георгий Жжёнов, Викторас Шинкарюкас, Георгий Дрозд, Сергей Юрский, Леонид Ярмольник, Ромуальдас Раманаускас, Александр Вокач, Игорь Богодух
Описание:
Германия, тридцатые годы. Советской разведчице Ярославе Соболевой (она же Софи Вайнерт) ценой собственной жизни удается уничтожить запасы нового вида бактериологического оружия.
По мотивам романа А.Марченко «Звездочеты».




Видео: 768x570@704x570 (4:3) 25.00 fps, MPEG4 AVC (x264) High@L4.1, 2350 kbps avg, 0.234 bit/pixel
Аудио: 48.0 kHz, AC3 Dolby Digital, 2/0 (L,R) ch, ~192 kbps

Аудиовидеопараметры всех файлов одинаковые.

МИ
Complete name : D:\Звездочёт.1986.DVBRip-AVC.mkv
Format : Matroska
File size : 1.11 GiB
Duration : 1h 2mn
Overall bit rate : 2 545 Kbps
Encoded date : UTC 2015-02-25
Writing application : mkvmerge v5.8.0 ('No Sleep / Pillow') built on Sep 2 2012 15:37:04
Writing library : libebml v1.2.3 + libmatroska v1.3.0

Video
ID : 1
Format : AVC
Format/Info : Advanced Video Codec
Format profile : High@L4.1
Format settings, CABAC : Yes
Format settings, ReFrames : 15 frames
Format settings, GOP : N=1
Codec ID : V_MPEG4/ISO/AVC
Duration : 1h 2mn
Bit rate : 2 350 Kbps
Width : 704 pixels
Height : 570 pixels
Display aspect ratio : 4:3
Frame rate : 25.000 fps
Color space : YUV
Chroma subsampling : 4:2:0
Bit depth : 8 bits
Scan type : Progressive
Bits/(Pixel*Frame) : 0.234
Stream size : 1.01 GiB (90%)
Writing library : x264 core 142 r2431 ac76440
Encoding settings : cabac=1 / ref=15 / deblock=1:-2:-2 / analyse=0x3:0x133 / me=umh / subme=10 / psy=1 / psy_rd=1.05:0.15 / mixed_ref=1 / me_range=32 / chroma_me=1 / trellis=2 / 8x8dct=1 / cqm=0 / deadzone=21,11 / fast_pskip=0 / chroma_qp_offset=-3 / threads=12 / lookahead_threads=3 / sliced_threads=0 / nr=0 / decimate=0 / interlaced=0 / bluray_compat=0 / constrained_intra=0 / bframes=10 / b_pyramid=2 / b_adapt=2 / b_bias=0 / direct=1 / weightb=1 / open_gop=0 / weightp=2 / keyint=250 / keyint_min=25 / scenecut=40 / intra_refresh=0 / rc=2pass / mbtree=0 / bitrate=2350 / ratetol=1.0 / qcomp=0.60 / qpmin=0 / qpmax=39 / qpstep=4 / cplxblur=20.0 / qblur=0.5 / ip_ratio=1.40 / pb_ratio=1.30 / aq=1:0.90

Audio
ID : 2
Format : AC-3
Format/Info : Audio Coding 3
Mode extension : CM (complete main)
Codec ID : A_AC3
Duration : 1h 2mn
Bit rate mode : Constant
Bit rate : 192 Kbps
Channel(s) : 2 channels
Channel positions : Front: L R
Sampling rate : 48.0 KHz
Bit depth : 16 bits
Video delay : 12ms
Stream size : 86.0 MiB (8%)
Language : Russian


Информация о торренте:
Размер содержимого: 3.3 GB
Скачан: 293 раза
Статус: Проверен
Зарегистрирован на трекере: 2019-01-06 18:17
Скачать торрент


Поддержи раздачу — поставь лайк:
Писать комментарии на нашем торрент-трекере могут только зарегистрированные пользователи.
Зарегистрируйтесь или авторизируйтесь на сайте.