»
»

Скачать фильм Королева бензоколонки (Николай Литус, Алексей Мишурин) / [1962, комедия, HDTVRip-AVC] - торрент

Торрент можно скачать, нажав синюю кнопку ниже. Фильм доступен на нашем торрент-трекере бесплатно, без регистрации и смс.

Статистика раздачи
41 [ 0 b/s ] ↑ 1.1 GB ↓ 0 [ 0 b/s ]
Автор Сообщение
BLIZNEC W
2019-01-05 13:12
Королева бензоколонки
Королева бензоколонки Формат: HDTVRip-AVC, MKV, H.264, AC3
Режиссер: Николай Литус, Алексей Мишурин
Жанр: комедия
Продолжительность: 01:12:57
Год выпуска: 1962

В ролях: Надежда Румянцева, Андрей Сова, Нонна Копержинская, Юрий Белов, Алексей Кожевников, Сергей Блинников, Владимир Белокуров, Николай Яковченко, Виктор Мягкий, Павел Винник, Александр Хвыля, Евгения Опалова, Виктор Халатов, Сергей Шеметило

Описание: Как и многие девушки шестидесятых годов, Людмила Добрыйвечер (Надежда Румянцева) мечтает танцевать в балете на льду. Но она не проходит по конкурсу - и меняет свою мечту: после ряда приключений Людмила устраивается на бензоколонку заправщицей... Не все получается у новоявленной работницы, но весёлый нрав и находчивость помогают ей не только освоить новую специальность, но и радикально перестроить работу всей бензоколонки. Фильм отличают лёгкость и ненавязчивость сюжета, тонкий, наполненный иронией, юмор.

Рейтинг и доп. информация:


Видео: 836х576, (4:3), 25 fps, AVC MPEG-4 (x264), High@L4.1 ~ 1943 kbps , 0.161 bit/pixel
Аудио: 48 kHz, АС3, 2/0 (L,R), ~192.00 kbps avg

Доп. инфо: Источник: HDTV 1080i
MediaInfo
Общее
Полное имя : Koroleva.benzokolonki.1962.HDTVRip-AVC_[New-team]_by_AVP_Studio.mkv
Формат : Matroska
Версия формата : Version 2
Размер файла : 1,09 Гбайт
Продолжительность : 1 ч. 12 м.
Общий поток : 2137 Кбит/сек
Дата кодирования : UTC 2018-12-29 12:10:17
Программа кодирования : mkvmerge v6.1.0 ('Old Devil') built on Mar 4 2013 09:10:42
Библиотека кодирования : libebml v1.3.0 + libmatroska v1.4.0

Видео
Идентификатор : 1
Формат : AVC
Формат/Информация : Advanced Video Codec
Профиль формата : High@L4.1
Настройки формата : CABAC / 10 Ref Frames
Параметр CABAC формата : Да
Параметр RefFrames формата : 10 кадров
Идентификатор кодека : V_MPEG4/ISO/AVC
Продолжительность : 1 ч. 12 м.
Битрейт : 1943 Кбит/сек
Ширина : 836 пикселей
Высота : 576 пикселей
Соотношение сторон : 3:2
Режим частоты кадров : Постоянный
Частота кадров : 25,000 кадров/сек
Цветовое пространство : YUV
Субдискретизация насыщенности : 4:2:0
Битовая глубина : 8 бит
Тип развёртки : Прогрессивная
Бит/(Пиксели*Кадры) : 0.161
Размер потока : 993 Мбайт (89%)
Библиотека кодирования : x264 core 157 r2932 303c484
Настройки программы : cabac=1 / ref=10 / deblock=1:-3:-2 / analyse=0x3:0x113 / me=umh / subme=10 / psy=1 / psy_rd=1.00:0.00 / mixed_ref=1 / me_range=32 / chroma_me=1 / trellis=2 / 8x8dct=1 / cqm=0 / deadzone=21,11 / fast_pskip=1 / chroma_qp_offset=-2 / threads=6 / lookahead_threads=1 / sliced_threads=0 / nr=0 / decimate=0 / interlaced=0 / bluray_compat=0 / constrained_intra=0 / bframes=8 / b_pyramid=2 / b_adapt=2 / b_bias=0 / direct=3 / weightb=1 / open_gop=0 / weightp=2 / keyint=250 / keyint_min=25 / scenecut=40 / intra_refresh=0 / rc_lookahead=40 / rc=2pass / mbtree=1 / bitrate=1943 / ratetol=1.0 / qcomp=0.60 / qpmin=0 / qpmax=69 / qpstep=4 / cplxblur=20.0 / qblur=0.5 / ip_ratio=1.40 / aq=1:1.00
Default : Да
Forced : Нет

Аудио
Идентификатор : 2
Формат : AC-3
Формат/Информация : Audio Coding 3
Коммерческое название : Dolby Digital
Идентификатор кодека : A_AC3
Продолжительность : 1 ч. 12 м.
Вид битрейта : Постоянный
Битрейт : 192 Кбит/сек
Каналы : 2 канала
Channel layout : L R
Частота : 48,0 КГц
Частота кадров : 31,250 кадров/сек (1536 SPF)
Битовая глубина : 16 бит
Метод сжатия : С потерями
Размер потока : 100 Мбайт (9%)
Default : Да
Forced : Нет

Информация о торренте:
Размер содержимого: 1.1 GB
Скачан: 169 раз
Статус: Проверен
Зарегистрирован на трекере: 2019-01-05 12:12
Скачать торрент


Поддержи раздачу — поставь лайк:
BLIZNEC W
2019-01-05 12:13
Интересного и приятного просмотра!!!

Мои раздачи
Писать комментарии на нашем торрент-трекере могут только зарегистрированные пользователи.
Зарегистрируйтесь или авторизируйтесь на сайте.