»
»

Скачать Т-34 (Алексей Леонидович Сидоров) / [2019, драма, военный, приключения, CamRip] - торрент

Нажмите синюю кнопку, чтобы cкачать бесплатно через торрент .

Статистика раздачи
5 [ 0 b/s ] ↑ 3.1 GB ↓ 0 [ 0 b/s ]
Автор Сообщение
sergejst50
2019-01-05 02:16
Т-34
Т-34 Т-34 Формат: CamRip, MKV, H.264, AAC
Режиссер: Алексей Леонидович Сидоров
Жанр: драма, военный, приключения
Продолжительность: 02.09.27
Год выпуска: 2019
В ролях: Александр Петров, Виктор Добронравов, Ирина Старшенбаум, Винценц Кифер, Петр Скворцов, Семен Трескунов, Артем Быстров, Антон Богданов, Василий Уриевский, Василий Буткевич
Описание: Во времена величайших испытаний человечества, когда от каждого действия зависят жизни любимых, два заклятых врага начнут свое противостояние.
Оказавшись в плену, вчерашний курсант Ивушкин планирует дерзкий побег. Он собирает свой экипаж и на легендарной «тридцатьчетверке» бросает вызов немецким танковым асам во главе с Ягером. Ради своей любви и Родины он готов идти до конца.

Рейтинг на КиноПоиске: http://rating.kinopoisk.ru/930878.gif
Видео: 1280X720. MP4 .3000 kbps
Аудио: AAC 384 kbps
Доп. информация: Без рекламных вставок.

Информация о торренте:
Размер содержимого: 3.1 GB
Скачан: 3475 раз
Статус: Редактируется автором
Зарегистрирован на трекере: 2019-01-05 01:16
Скачать торрент


Поддержи раздачу — поставь лайк:
sergejst50
2019-01-05 02:22
Ссылки на скрины https://c.radikal.ru/c40/1901/43/f9e9d402f0ba.jpg https://c.radikal.ru/c21/1901/e6/baeedafab759.jpg https://b.radikal.ru/b21/1901/82/9738b560bd99.jpg
АртемПутник
2019-01-05 07:50
спасибо
ГAMER
2019-01-05 09:22
Буду ждать качества.
BLIZNEC W
2019-01-05 11:04
Размер постера должен быть в пределах от 350 до 500 точек по большей стороне, не больше, не меньше.
    Если постера к релизу найти не возможно, то на место постера необходимо вставить скриншот фильма.

Как добавить постер в раздачу?
Заливаем постер на хостинг http://turbopic.org/.



1) Открываем в браузере страничку img.tfile.ru, указываем ссылку на постер в поле С сервера и нажимаем кнопку Загрузить:

2) Копируем ссылку на файл:


3) В описании раздачи нажимаем [Изменить]:

4) В открывшемся окне редактирования раздачи вставляем скопированную ссылку после заголовка темы и исправляем теги :

5)Сохраняем изменения в раздаче, нажав кнопку Отправить.
Если вы всё сделали верно, то постер отобразится на своем месте.




Код для размещения постера:
Код:
[imga]прямая_ссылка_на_изображение[/imga]

Скриншоты должны быть сделаны с раздаваемого файла и соответствовать размеру экрана, указанному в данных о видео.
Рекомендуемое количество скриншотов – от 4 до 8.

:arrow: Как создать скриншоты – читаем здесь! :arrow2:

Заливаем скриншоты на наш хостинг – img.tfile.ru.


Как добавить скриншоты в описание раздачи?
Заливаем скриншоты следующим образом:

1) Открываем в браузере страничку img.tfile.ru, добавляем нужное количество скриншотов с помощью кнопок + и Обзор и нажимаем Загрузить:

2) Копируем ссылки на все картинки (внизу страницы):

3) В описании раздачи нажимаем [Изменить]:

4) В открывшемся окне редактирования раздачи после данных по видео-аудио пишем теги
Показать скриншоты
] [/shots] и вставляем в них ссылки на скриншоты:

5) Сохраняем изменения в раздаче, нажав кнопку Отправить.




Код для размещения скриншотов:
Код:
[shots]прямая_ссылка_на_изображение[/shots]

Не хватает информации по видео/аудио!
Пример правильного оформления:
    Видео: 1280 x 544 (2:35:1), 23,976 fps, MPEG4 AVC (х264) High@L4.1, ~ 2002 Kbps, 0.120 bit/pixel
    Аудио #1: Русский: 48 kHz, AC3 Dolby Digital, 3/2 (L,C,R,l,r) + LFE ch, ~384.00 kbps avg [Профессиональный многоголосый]
    Аудио #2: Английский: 48 kHz, AC3 Dolby Digital, 3/2 (L,C,R,l,r) + LFE ch, ~384.00 kbps avg [Оригинал]




Пример
МediaInfo

Общее
UniqueID/String : 60176425249741991864998796745601212451 (0x2D458ED4BA450FED0E277F3BD4406023)
Полное имя : D:\Кулак Ярости.mkv
Формат : Matroska
Размер файла : 4,20 Гбайт
Продолжительность : 1 ч. 46 м.
Общий поток : 5659 Кбит/сек
Программа кодирования : Lavf52.66.0
Библиотека кодирования : Lavf52.66.0

Видео
Идентификатор : 1
Формат : AVC
Формат/Информация : Advanced Video Codec
Профиль формата : High@L4.1
Параметр CABAC формата : Да
Параметр ReFrames формата : 7 кадры
Идентификатор кодека : V_MPEG4/ISO/AVC
Продолжительность : 1 ч. 46 м.
Битрейт : 4376 Кбит/сек
Ширина : 1280 пикс.
Высота : 544 пикс.
Соотношение сторон : 16:9
Режим частоты кадров : Переменный
Частота кадров : 23,976 кадр/сек
Цветовое пространство : YUV
Подвыборка цветности : 4:2:0
Битовая глубина : 8 бит
Тип развёртки : Прогрессивная
Бит/(Пиксели*Кадры) : 0.262
Размер потока : 3,16 Гбайт (75%)
Библиотека кодирования : x264 core 96
Настройки программы : cabac=1 / ref=8 / deblock=1:-3:-3 / analyse=0x3:0x133 / me=hex / subme=10 / psy=1 / psy_rd=1.10:0.00 / mixed_ref=1 / me_range=16 / chroma_me=1 / trellis=2 / 8x8dct=1 / cqm=0 / deadzone=21,11 / fast_pskip=1 / chroma_qp_offset=-2 / threads=8 / sliced_threads=0 / nr=113 / decimate=1 / interlaced=0 / constrained_intra=0 / bframes=8 / b_pyramid=1 / b_adapt=2 / b_bias=8 / direct=3 / weightb=1 / weightp=2 / keyint=230 / keyint_min=23 / scenecut=40 / intra_refresh=0 / rc_lookahead=50 / rc=2pass / mbtree=0 / bitrate=4376 / ratetol=0.2 / qcomp=1.00 / qpmin=10 / qpmax=51 / qpstep=4 / cplxblur=20.0 / qblur=0.5 / vbv_maxrate=50000 / vbv_bufsize=55000 / ip_ratio=1.40 / pb_ratio=1.30 / aq=1:1.00 / nal_hrd=none
Язык : English

Аудио #1
Идентификатор : 2
Формат : AC-3
Формат/Информация : Audio Coding 3
Расширение режима : CM (complete main)
Идентификатор кодека : A_AC3
Продолжительность : 1 ч. 46 м.
Вид битрейта : Постоянный
Битрейт : 640 Кбит/сек
Канал(ы) : 6 канала(ов)
Расположение каналов : Front: L C R, Side: L R, LFE
Частота : 48,0 КГц
Битовая глубина : 16 бит
Метод сжатия : С потерями
Размер потока : 486 Мбайт (11%)
Язык :Russian

Аудио #2
Идентификатор : 3
Формат : AC-3
Формат/Информация : Audio Coding 3
Расширение режима : CM (complete main)
Идентификатор кодека : A_AC3
Продолжительность : 1 ч. 46 м.
Вид битрейта : Постоянный
Битрейт : 640 Кбит/сек
Канал(ы) : 6 канала(ов)
Расположение каналов : Front: L C R, Side: L R, LFE
Частота : 48,0 КГц
Битовая глубина : 16 бит
Метод сжатия : С потерями
Размер потока : 486 Мбайт (11%)
Язык :Russian



После исправления ошибок напишите любому модератору Наше кино в ЛС, указав ссылку на ваш релиз!

Emilio Gitan
2019-01-20 20:57
сплошной косяк. ничего не открывается.
Emilio Gitan
2019-01-20 20:58
минус тебе!!!!!
Писать комментарии на нашем торрент-трекере могут только зарегистрированные пользователи.
Зарегистрируйтесь или авторизируйтесь на сайте.