»
»

Скачать фильм Полицейский с Рублёвки. Новогодний беспредел (Илья Куликов) / [2018, комедия, TS 720р] - торрент

Скачать фильм через торрент бесплатно. Фильм доступен на нашем торрент-трекере бесплатно, без регистрации и смс.

Статистика раздачи
398 [ 6.3 MB/s ] ↑ 1.7 GB ↓ 11 [ 7.8 MB/s ]
Автор Сообщение
power-gold
2019-01-04 23:28
Полицейский с Рублёвки. Новогодний беспредел
Полицейский с Рублёвки. Новогодний беспредел Формат: TS 720р, mp4, AVC, AAC
Режиссер: Илья Куликов
Жанр: комедия
Продолжительность: 01:31:00
Год выпуска: 2018

В ролях: Александр Петров, Сергей Бурунов, Александра Бортич, Роман Попов, Татьяна Бабенкова

Описание: В канун нового года отделение полиции «Барвиха Северное» оказывается под угрозой закрытия. Чтобы спасти родной отдел, полицейский с Рублевки Гриша Измайлов вынужден пойти на крайние меры и вместе с оперативниками решает ограбить банк. Он рассчитывает на то, что его коллеги вместе с начальником отдела - Яковлевым легко раскроют это дело, деньги вернут обратно, и все сохранят работу в следующем году. Но все идет не так, как задумал Гриша...



Видео: 1280x536 (2.40:1), 25 fps, AVC MPEG-4 (x264), Main@L4.0 ~ 2 500 kbps , 0.146 bit/pixel
Аудио: 48 kHz, AAC LC, 2/0 (L,R) ch, ~192.00 kbps avg

Дополнительно Присутствует реклама. Звук TS

MI
General
Complete name : E:\полицейский с рублёвки 720р.mp4
Format : MPEG-4
Format profile : Base Media / Version 2
Codec ID : mp42 (isom/iso2/avc1/mp41)
File size : 1.73 GiB
Duration : 1 h 31 min
Overall bit rate : 2 698 kb/s
Writing application : HandBrake rev0 2014100499

Video
ID : 1
Format : AVC
Format/Info : Advanced Video Codec
Format profile : Main@L4
Format settings : CABAC / 4 Ref Frames
Format settings, CABAC : Yes
Format settings, ReFrames : 4 frames
Codec ID : avc1
Codec ID/Info : Advanced Video Coding
Duration : 1 h 31 min
Bit rate : 2 500 kb/s
Width : 1 280 pixels
Height : 536 pixels
Display aspect ratio : 2.40:1
Frame rate mode : Constant
Frame rate : 25.000 FPS
Color space : YUV
Chroma subsampling : 4:2:0
Bit depth : 8 bits
Scan type : Progressive
Bits/(Pixel*Frame) : 0.146
Stream size : 1.60 GiB (93%)
Writing library : x264 core 142 r2431 a5831aa
Encoding settings : cabac=1 / ref=3 / deblock=0:-1:-1 / analyse=0x1:0x111 / me=hex / subme=7 / psy=1 / psy_rd=1.00:0.15 / mixed_ref=1 / me_range=16 / chroma_me=1 / trellis=1 / 8x8dct=0 / cqm=0 / deadzone=21,11 / fast_pskip=1 / chroma_qp_offset=-3 / threads=32 / lookahead_threads=4 / sliced_threads=0 / nr=0 / decimate=1 / interlaced=0 / bluray_compat=0 / constrained_intra=0 / bframes=3 / b_pyramid=2 / b_adapt=1 / b_bias=0 / direct=1 / weightb=1 / open_gop=0 / weightp=2 / keyint=250 / keyint_min=25 / scenecut=40 / intra_refresh=0 / rc_lookahead=40 / rc=2pass / mbtree=1 / bitrate=2500 / ratetol=1.0 / qcomp=0.60 / qpmin=0 / qpmax=69 / qpstep=4 / cplxblur=20.0 / qblur=0.5 / vbv_maxrate=20000 / vbv_bufsize=25000 / nal_hrd=none / filler=0 / ip_ratio=1.40 / aq=1:1.00
Color range : Limited
Color primaries : BT.709
Transfer characteristics : BT.709
Matrix coefficients : BT.709
Codec configuration box : avcC

Audio
ID : 2
Format : AAC LC
Format/Info : Advanced Audio Codec Low Complexity
Codec ID : mp4a-40-2
Duration : 1 h 31 min
Bit rate mode : Constant
Bit rate : 192 kb/s
Channel(s) : 2 channels
Channel layout : L R
Sampling rate : 48.0 kHz
Frame rate : 46.875 FPS (1024 SPF)
Compression mode : Lossy
Stream size : 126 MiB (7%)
Title : Stereo / Stereo
Default : Yes
Alternate group : 1


Информация о торренте:
Размер содержимого: 1.7 GB
Скачан: 9775 раз
Статус: Временная раздача
Зарегистрирован на трекере: 2019-01-04 22:28
Скачать торрент


Поддержи раздачу — поставь лайк:
power-gold
2019-01-04 23:04
Понравился релиз? Жми +
maxde2009
2019-01-05 12:28
ФИЛЬМ ЕРУНДА.НУДНЫЙ
Bender R0driguez
2019-01-05 20:57
maxde2009 написал(а):
ФИЛЬМ ЕРУНДА.НУДНЫЙ


Видимо вы из тех кто смотрит "Елки" и от этого тупеет :help:

Отличный фильм! Спасибо!
fc_skillman
2019-01-07 16:21
Фильм... точнее не фильм, а еще одна серия из того же сериала!! Я лично посмотрел с удовольствием, но на поход в кинотеатр не тянет... На повторный просмотр явно не дотягивает.
Но уж получше всяких елок и прочей лабуды.. хотябы потому что актеры здесь играют великолепно и сюжет не тривиальный.
Дьякон Николай
2019-01-08 18:06
Кайфоломы,я ждал этот фильм ради одного момента когда Сергей Бурунов будет петь песню "Музыка нас связала" и вот выходит фильм и вот выкладывают на торренты скороспелые релизы и вот я скачиваю и запускаю фильм и вот я весь в предвкушение полного кайфа и счастья от того сейчас увижу и услышу НО ёлы палы промотав весь фильм кусками я не нашёл данной песни целиком.
Музыка нас связала, цветомузыка нас раздела
Прям посреди этого новогоднего беспредела
А я приличный человек, так не привык тусить
Меня бы по-братски взять, понять и отпустить
Музыка нас связала, тайною нашей стала.
Всем уговорам твержу я в ответ: "Нас не разлучат, нет!"
Музыка нас связала, тайною нашей стала.
Всем уговорам твержу я в ответ: "Нас не разлучат, нет!"

Как так-то,жизнь,боль. :xnik:
tankest05
2019-01-15 12:15
спасибо!
Писать комментарии на нашем торрент-трекере могут только зарегистрированные пользователи.
Зарегистрируйтесь или авторизируйтесь на сайте.