»
»

Скачать фильм Фантастические твари: Преступления Грин-де-Вальда / Fantastic Beasts: The Crimes of Grindelwald (Дэвид Йейтс) [2018, Фэнтези, Приключения, Семейный, WEBDLRip-AVC] VO [Solod] - торрент

Нажмите на синюю кнопку, чтобы скачать фильм через торрент бесплатно. Фильм доступен на нашем торрент-трекере бесплатно, без регистрации и смс.

Статистика раздачи
46 [ 563.0 KB/s ] ↑ 2.0 GB ↓ 1 [ 762.0 KB/s ]
Автор Сообщение
Eugeen.Solod
2019-01-04 03:17
Фантастические твари: Преступления Грин-де-Вальда / Fantastic Beasts: The Crimes of Grindelwald
Фантастические твари: Преступления Грин-де-Вальда / Fantastic Beasts: The Crimes of Grindelwald
Перевод: Любительский (одноголосый), Solod
Cубтитры: корейские, вшитые
Формат: WEBDLRip-AVC, MKV, H.264, AC3
Страна: Великобритания, США
Режиссер: Дэвид Йейтс
Жанр: Фэнтези, Приключения, Семейный
Продолжительность: 02:13:40
Год выпуска: 2018

В ролях: Джонни Депп, Кевин Гатри, Кармен Эджого, Вольф Рот, Эдди Редмэйн, Зои Кравиц, Каллум Тернер, Дерек Ридделл, Корнелл Джон, Эзра Миллер
Описание: Могущественный тёмный волшебник Геллерт Грин-де-Вальд пойман в Штатах, но не собирается молча сидеть в темнице и устраивает грандиозный побег. Теперь ничто не помешает ему добиться своей цели — установить превосходство волшебников над всеми немагическими существами на планете. Чтобы сорвать планы Грин-де-Вальда, Альбус Дамблдор обращается к своему бывшему студенту Ньюту Саламандеру, который соглашается помочь, не подозревая, какая опасность ему грозит. В раскалывающемся на части волшебном мире любовь и верность проверяются на прочность, а конфликт разделяет даже настоящих друзей и членов семей.

[imdb=https://www.imdb.com/title/tt4123430/]

Видео: 1024x428 (2.40:1), 23.976 fps, AVC (h264) High@L4.1, 1900 kbps, 0.181 bpp
Аудио: 48 kHz, AC3 Dolby Digital, 2.0 ch, 256 kbps
MI
Код:

General
Unique ID : 294592700014324263284730210983589812759 (0xDDA07D8013AB119C707690B62D459A17)
Complete name : fantastic.beasts.the.crimes.of.grindelwald.2018.solod.rus.2.0.mkv
Format : Matroska
Format version : Version 4 / Version 2
File size : 2.01 GiB
Duration : 2 h 13 min
Overall bit rate : 2 158 kb/s
Movie name : Fantastic Beasts: The Crimes of Grindelwald | 2018 | Solod
Released date : 2018
Encoded date : UTC 2019-01-03 22:34:08 / UTC 2019-01-03T15:17:23Z
Writing application : mkvmerge v23.0.0 ('The Bride Said No') 64-bit
Writing library : libebml v1.3.6 + libmatroska v1.4.9 / Lavf57.7.2
SUMMARY : Fantastic.Beasts.The.Crimes.of.Grindelwald.2018.1080p.KORSUB.HDRip.x264.AAC2.0-S

Video
ID : 1
Format : AVC
Format/Info : Advanced Video Codec
Format profile : High@L4.1
Format settings : CABAC / 10 Ref Frames
Format settings, CABAC : Yes
Format settings, ReFrames : 10 frames
Codec ID : V_MPEG4/ISO/AVC
Duration : 2 h 13 min
Bit rate : 1 900 kb/s
Width : 1 024 pixels
Height : 428 pixels
Display aspect ratio : 2.40:1
Frame rate mode : Constant
Frame rate : 23.976 (24000/1001) FPS
Color space : YUV
Chroma subsampling : 4:2:0
Bit depth : 8 bits
Scan type : Progressive
Bits/(Pixel*Frame) : 0.181
Stream size : 1.74 GiB (86%)
Writing library : x264 core 155
Encoding settings : cabac=1 / ref=10 / deblock=1:-2:-2 / analyse=0x3:0x113 / me=umh / subme=11 / psy=1 / psy_rd=1,15:0,20 / mixed_ref=1 / me_range=24 / chroma_me=1 / trellis=2 / 8x8dct=1 / cqm=0 / deadzone=21,11 / fast_pskip=1 / chroma_qp_offset=-3 / threads=6 / lookahead_threads=1 / sliced_threads=0 / nr=0 / decimate=1 / interlaced=0 / bluray_compat=0 / constrained_intra=0 / bframes=11 / b_pyramid=2 / b_adapt=1 / b_bias=0 / direct=1 / weightb=1 / open_gop=0 / weightp=2 / keyint=240 / keyint_min=24 / scenecut=40 / intra_refresh=0 / rc_lookahead=40 / rc=2pass / mbtree=1 / bitrate=1900 / ratetol=1,0 / qcomp=0,60 / qpmin=0 / qpmax=69 / qpstep=4 / cplxblur=20,0 / qblur=0,5 / vbv_maxrate=62500 / vbv_bufsize=78125 / nal_hrd=none / filler=0 / ip_ratio=1,40 / aq=1:1,00
Default : Yes
Forced : No
Color range : Limited
Color primaries : BT.709
Transfer characteristics : BT.709
Matrix coefficients : BT.709
Statistics Tags Issue : mkvmerge v23.0.0 ('The Bride Said No') 64-bit 2019-01-03 22:34:08 / mkvmerge v23.0.0 ('The Bride Said No') 64-bit 2019-01-03 22:34:08 / UTC 2019-01-03T15:17:23Z
FromStats_BitRate : 1900049
FromStats_Duration : 02:13:40.137000000
FromStats_FrameCount : 192291
FromStats_StreamSize : 1904832655

Audio
ID : 2
Format : AC-3
Format/Info : Audio Coding 3
Codec ID : A_AC3
Duration : 2 h 13 min
Bit rate mode : Constant
Bit rate : 256 kb/s
Channel(s) : 2 channels
Channel positions : Front: L R
Sampling rate : 48.0 kHz
Frame rate : 31.250 FPS (1536 SPF)
Bit depth : 16 bits
Compression mode : Lossy
Stream size : 245 MiB (12%)
Title : solod
Language : Russian
Service kind : Complete Main
Default : Yes
Forced : No
Statistics Tags Issue : mkvmerge v23.0.0 ('The Bride Said No') 64-bit 2019-01-03 22:34:08 / mkvmerge v23.0.0 ('The Bride Said No') 64-bit 2019-01-03 22:34:08 / UTC 2019-01-03T15:17:23Z
FromStats_BitRate : 256000
FromStats_Duration : 02:13:40.128000000
FromStats_FrameCount : 250629
FromStats_StreamSize : 256644096


Информация о торренте:
Размер содержимого: 2.0 GB
Скачан: 1635 раз
Статус: Временная раздача
Зарегистрирован на трекере: 2019-01-04 02:17
Скачать торрент


Поддержи раздачу — поставь лайк:

balobol5
2019-01-04 08:51
вы с доктором чтоли объеденитесь найдите себе бабу потом переводите девяностые прошли какой одноголосный перевод
Roman V
2019-01-04 11:24
Аvi не будет случайно?А перевод нормальный,спасибо
Ua_PIRAT
2019-01-04 13:51
Спасибо за релиз.


Eugeen.Solod
2019-01-04 14:51
Roman V написал(а):
Аvi не будет случайно?А перевод нормальный,спасибо

долго цифрить. а еще дольше - выкладывать.
возьмите английский релиз, да перегоните в avi, а звук возьмите отсюда.
)

зыЖ
рад, что понравилось, мне, если честно - нет.
лучше "охотников на ведьм" у меня с сайта возьмите, там я, считаю, постарался. и над звуком покорпел по-научному.
да, и фильм намного лучше, и не замутнен дурацкими нераскрытыми идеями.
tov777
2019-01-04 21:51
Звук ужасный. Подожду лучше, чтобы впечатление от фильма не портить.
broadcaster
2019-01-05 16:31
Фильм сумбурный, сценарий написан "на коленке", кроме компьютерной графики пустышка, да и графика утомляет. Плюс невнятный и беззубый бубнилко-переводчик убивает всё что говориться. Ужасное послезвучие. (((
Alex_VS
2019-01-07 12:32
Перевод очень труден к восприятию, низкочастотный звук слишком.
Писать комментарии на нашем торрент-трекере могут только зарегистрированные пользователи.
Зарегистрируйтесь или авторизируйтесь на сайте.