»
»

Скачать фильм Кольцо из Амстердама (Владимир Чеботарев) / [1981, приключения, DVDRip-AVC] - торрент

Скачать фильм через торрент бесплатно. Фильм доступен на нашем торрент-трекере бесплатно, без регистрации и смс.

Статистика раздачи
4 [ 0 b/s ] ↑ 1.5 GB ↓ 0 [ 0 b/s ]
Автор Сообщение
Фёкла412
2018-12-29 18:42
Кольцо из Амстердама
Кольцо из Амстердама Формат: DVDRip-AVC, MKV, H.264, AC3
Страна: СССР
Режиссер: Владимир Чеботарев
Жанр: приключения
Продолжительность: 01:22:27
Год выпуска: 1981
В ролях: Александр Збруев, Михаил Волков, Геннадий Корольков, Паул Буткевич, Всеволод Ларионов, Александр Дик, Ольга Мясникова, Александр Юшин, Владимир Ферапонтов, Андрей Ширнин
Описание:
Моряк советского торгового флота, стремясь к материальному благополучию, становится на путь запретных валютных махинаций — и сразу оказывается объектом внимания иностранной разведки.
Однако быть шпионом он не захотел, пришел в органы с повинной. С этого момента начинается его участие в рискованной игре, которую ведут чекисты…


[imdb=http://www.imdb.com/title/tt0237381/]

Видео: 768x416@720x416 (1,85:1) 25.00 fps, MPEG4 AVC (x264) High@L4.1, 2329 Kbps avg, 0.311 Bits/Pixel
Аудио: 48 kHz, AC3, 2 (L,R), ~192.00 kbps avg

МИ

Общее
Уникальный идентификатор : 182903826246386161928800996392542510217 (0x8999FEDF0ECA3EF7ACC95EF5A2FD9C89)
Полное имя : E:\Мои раздачи\Кольцо из Амстердама (1981)\фильм\Кольцо_из_Амстердама.1981. DVDRip-AVC.mkv
Формат : Matroska
Версия формата : Version 2
Размер файла : 1,45 Гбайт
Продолжительность : 1 ч. 22 м.
Общий поток : 2523 Кбит/сек
Дата кодирования : UTC 2016-01-22 13:23:24
Программа кодирования : mkvmerge v5.8.0 ('No Sleep / Pillow') built on Sep 2 2012 15:37:04
Библиотека кодирования : libebml v1.2.3 + libmatroska v1.3.0
Примечание : DVDRip-AVC
Encoded by : george$t®
Originally released : January 20th 2016

Видео
Идентификатор : 1
Формат : AVC
Формат/Информация : Advanced Video Codec
Профиль формата : High@L4.1
Параметр CABAC формата : Да
Параметр ReFrames формата : 16 кадров
Идентификатор кодека : V_MPEG4/ISO/AVC
Продолжительность : 1 ч. 22 м.
Битрейт : 2329 Кбит/сек
Ширина : 720 пикселей
Высота : 416 пикселей
Соотношение сторон : 1,85:1
Режим частоты кадров : Постоянный
Частота кадров : 25,000 кадров/сек
Цветовое пространство : YUV
Субдискретизация насыщенности : 4:2:0
Битовая глубина : 8 бит
Тип развёртки : Прогрессивная
Бит/(Пиксели*Кадры) : 0.311
Размер потока : 1,31 Гбайт (90%)
Заголовок : Кольцо из Амстердама.1981
Библиотека кодирования : x264 core 148 r2638kMod 7599210
Настройки программы : cabac=1 / ref=16 / deblock=1:-1:0 / analyse=0x3:0x133 / me=umh / subme=11 / psy=1 / fade_compensate=0.00 / psy_rd=0.60:0.30 / mixed_ref=1 / me_range=32 / chroma_me=1 / trellis=2 / 8x8dct=1 / cqm=0 / deadzone=21,11 / fast_pskip=0 / chroma_qp_offset=-4 / threads=12 / lookahead_threads=2 / sliced_threads=0 / nr=0 / decimate=0 / interlaced=0 / bluray_compat=0 / constrained_intra=0 / fgo=0 / bframes=9 / b_pyramid=2 / b_adapt=2 / b_bias=0 / direct=3 / weightb=1 / open_gop=0 / weightp=2 / keyint=250 / keyint_min=25 / scenecut=40 / intra_refresh=0 / rc_lookahead=40 / rc=2pass / mbtree=0 / bitrate=2329 / ratetol=1.0 / qcomp=0.65 / qpmin=0 / qpmax=69 / qpstep=4 / cplxblur=20.0 / qblur=0.5 / vbv_maxrate=50000 / vbv_bufsize=62500 / nal_hrd=none / filler=0 / ip_ratio=1.40 / pb_ratio=1.30 / aq=2:0.90
Язык : Russian
Default : Да
Forced : Нет
Цветовой диапазон : Limited
Основные цвета : BT.601 PAL
Характеристики трансфера : BT.470 System B, BT.470 System G
Коэффициенты матрицы : BT.601

Аудио
Идентификатор : 2
Формат : AC-3
Формат/Информация : Audio Coding 3
Расширение режима : CM (complete main)
Параметр Endianness формата : Big
Идентификатор кодека : A_AC3
Продолжительность : 1 ч. 22 м.
Вид битрейта : Постоянный
Битрейт : 192 Кбит/сек
Каналы : 2 канала
Расположение каналов : Front: L R
Частота : 48,0 КГц
Частота кадров : 31,250 кадров/сек (1536 spf)
Метод сжатия : С потерями
Размер потока : 113 Мбайт (8%)
Заголовок : Оригинал AC-3; 16 bits 48 Khz; 2.0ch 192 Kbps; CBR
Язык : Russian
Default : Да
Forced : Нет

Меню
00:00:00.000 : ru:Штурман Фастов. Вербовка
00:14:04.720 : ru:На борту "Альбатроса". Лена
00:25:05.440 : ru:"Сводник" Миша. Финансовые операции
00:31:20.600 : ru:Старый друг. Новая "Волга"
00:35:48.880 : ru:Возвращение в порт. Попытка "завязать"
00:43:47.680 : ru:В заключении. План Крестова
00:49:12.240 : ru:Таллин. "Привет от Петра Иваныча"
00:58:34.160 : ru:Андрей. Встречи в Москве
01:08:08.160 : ru:Покушение. Допрос
01:13:57.000 : ru:Два чемоданчика. "Подведем итоги..."



Информация о торренте:
Размер содержимого: 1.5 GB
Скачан: 138 раз
Статус: Проверен
Зарегистрирован на трекере: 2018-12-29 17:42
Скачать торрент


Поддержи раздачу — поставь лайк:
Писать комментарии на нашем торрент-трекере могут только зарегистрированные пользователи.
Зарегистрируйтесь или авторизируйтесь на сайте.