»
»

Скачать аниме Маска героя, 1 сезон 1-15 серии из 15 / Hero Mask (Хироясу Аоки) [2018, aниме, мультфильм, боевик, криминал, WEB-DLRip 720p] MVO+Original - торрент

Скачать аниме через торрент бесплатно. Аниме доступен на нашем торрент-трекере бесплатно, без регистрации и смс.

Статистика раздачи
11 [ 58.0 KB/s ] ↑ 12.9 GB ↓ 0 [ 0 b/s ]
Автор Сообщение
D4IVER
2018-12-29 00:05
Маска героя / Hero Mask
Маска героя, 1 сезон 1-15 серии из 15 / Hero Mask
Перевод: Профессиональный (многоголосый, закадровый) IdeaFilm
Субтитры: отсутствуют
Формат: WEB-DLRip 720p, MKV, H.264, AC3
Страна: США
Режиссер: Хироясу Аоки
Жанр: Аниме, мультфильм, боевик, криминал
Всего серий: 15
Продолжительность: 15 х ~ 00:25:00
Год выпуска: 2018

В ролях: Ясуюки Касэ, Юко Каида, Дзюнпэй Морита, Коки Утияма

Описание: центре сюжета будет детектив Джеймс Блад, который должен расследовать череду ужасных инцидентов, связанных с таинственной маской.

[imdb=http://www.imdb.com/title/tt9316078/]

Видео: 1280x720 (16:9), 23,976 fps, AVC (х264), Main@L4.1, ~3921 kbps avg, 0.177 bit/pixel
Аудио #1 Rus: 48 kHz, AC3 Dolby Digital, 3/2 (L,C,R,l,r) + LFE ch, ~384 kbps
Аудио #2 Jap: 48 kHz, AC3 Dolby Digital, 3/2 (L,C,R,l,r) + LFE ch, ~640 kbps

Внимание, присутствует реклама!

MediaInfo

Video
ID : 1
Format : AVC
Format/Info : Advanced Video Codec
Format profile : Main@L4.1
Format settings : CABAC / 4 Ref Frames
Format settings, CABAC : Yes
Format settings, ReFrames : 4 frames
Codec ID : V_MPEG4/ISO/AVC
Duration : 25 min 4 s
Bit rate : 3 921 kb/s
Width : 1 280 pixels
Height : 720 pixels
Display aspect ratio : 16:9
Frame rate mode : Constant
Frame rate : 23.976 (24000/1001) FPS
Standard : NTSC
Color space : YUV
Chroma subsampling : 4:2:0
Bit depth : 8 bits
Scan type : Progressive
Bits/(Pixel*Frame) : 0.177
Stream size : 703 MiB (80%)
Language : English
Default : Yes
Forced : No
Color range : Limited
Color primaries : BT.709
Transfer characteristics : BT.709
Matrix coefficients : BT.709

Audio #1
ID : 2
Format : AC-3
Format/Info : Audio Coding 3
Commercial name : Dolby Digital
Codec ID : A_AC3
Duration : 25 min 4 s
Bit rate mode : Constant
Bit rate : 384 kb/s
Channel(s) : 6 channels
Channel positions : Front: L C R, Side: L R, LFE
Sampling rate : 48.0 kHz
Frame rate : 31.250 FPS (1536 SPF)
Bit depth : 16 bits
Compression mode : Lossy
Stream size : 68.9 MiB (8%)
Title : IDEAFILM
Language : Russian
Service kind : Complete Main
Default : Yes
Forced : No

Audio #2
ID : 3
Format : AC-3
Format/Info : Audio Coding 3
Codec ID : A_AC3
Duration : 24 min 24 s
Bit rate : 640 kb/s
Channel(s) : 6 channels
Sampling rate : 48.0 kHz
Frame rate : 31.250 FPS (1536 SPF)
Compression mode : Lossy
Stream size : 112 MiB (13%)
Language : Japanese
Default : No
Forced : No

Информация о торренте:
Размер содержимого: 12.9 GB
Скачан: 153 раза
Статус: Временная раздача
Зарегистрирован на трекере: 2018-12-28 23:05
Скачать торрент


Поддержи раздачу — поставь лайк:
Писать комментарии на нашем торрент-трекере могут только зарегистрированные пользователи.
Зарегистрируйтесь или авторизируйтесь на сайте.