»
»

Скачать Насыщенный / Bodied (Джозеф Кан) [2017, Драма, комедия, музыка, WEBRip 1080p] MVO - торрент

Скачать бесплатный торрент .

Статистика раздачи
3 [ 0 b/s ] ↑ 6.5 GB ↓ 0 [ 0 b/s ]
Автор Сообщение
IdeaFilm
2018-12-19 16:58
Насыщенный / Bodied
Насыщенный / Bodied Перевод: Профессиональный (многоголосый, закадровый) IdeaFilm
Субтитры: отсутствуют
Формат: WEBRip, MKV, h.264, AC3
Страна: США
Режиссер: Джозеф Кан
Жанр: Драма, комедия, музыка
Продолжительность: ~02:01:08
Год выпуска: 2018

В ролях: Кэлам Уорси, Джеки Лонг, Рори Упхолд, Джонатан Пак, Уолтер Перес, Шоникуа Шандай, Шарламань Та Бо, Дисастер, Дебра Уилсон, Энтони Майкл Холл

Описание: Фильм режиссёра Джозефа Кана, снятый по сценарию Алекса Ларсена и спродюсированный Эминемом. Аспирант Адам (Келам Уорти) становится конкурентноспособным баттл-рэпером после погружения в эту культуру во время работы над диссертацией на эту тему

Рейтинг на: [imdb=http://www.imdb.com/title/tt5883570/]

Видео: 1920x960 (2,000), 23,976 fps, AVC (х264), Main@L4.1, ~6880 kbps avg,0.156 bit/pixel
Аудио #1 Rus: :48 kHz, AC3 Dolby Digital, 3/2 (L,C,R,l,r) + LFE ch, ~384 kbps
Аудио #1 Eng: :48 kHz, AC3 Dolby Digital, 3/2 (L,C,R,l,r) + LFE ch, ~384 kbps

Внимание, присутствует реклама!

MediaInfo

Общее
Уникальный идентификатор : 23965860179753393452607290609259330284 (0x1207A8227E28A03D6355092B89853AEC)
Полное имя : K:\IdeaFilm\Bodied.2017.WEBRip.1080p.IdeaFilm.mkv
Формат : Matroska
Версия формата : Version 4
Размер файла : 6,47 Гбайт
Продолжительность : 2 ч. 1 м.
Общий поток : 7648 Кбит/сек
Дата кодирования : UTC 2018-12-18 21:31:54
Программа кодирования : mkvmerge v25.0.0 ('Prog Noir') 64-bit
Библиотека кодирования : libebml v1.3.6 + libmatroska v1.4.9

Видео
Идентификатор : 1
Формат : AVC
Формат/Информация : Advanced Video Codec
Профиль формата : Main@L4.1
Настройки формата : CABAC / 4 Ref Frames
Параметр CABAC формата : Да
Параметр RefFrames формата : 4 кадра
Идентификатор кодека : V_MPEG4/ISO/AVC
Продолжительность : 2 ч. 1 м.
Битрейт : 6880 Кбит/сек
Ширина : 1920 пикселей
Высота : 960 пикселей
Соотношение сторон : 2,000
Режим частоты кадров : Постоянный
Частота кадров : 23,976 (24000/1001) кадра/сек
Стандарт вещания : NTSC
Цветовое пространство : YUV
Субдискретизация насыщенности : 4:2:0
Битовая глубина : 8 бит
Тип развёртки : Прогрессивная
Бит/(Пиксели*Кадры) : 0.156
Размер потока : 5,82 Гбайт (90%)
Язык : English
Default : Да
Forced : Нет
Цветовой диапазон : Limited
Основные цвета : BT.709
Характеристики трансфера : BT.709
Коэффициенты матрицы : BT.709

Аудио #1
Идентификатор : 2
Формат : AC-3
Формат/Информация : Audio Coding 3
Коммерческое название : Dolby Digital
Идентификатор кодека : A_AC3
Продолжительность : 2 ч. 1 м.
Вид битрейта : Постоянный
Битрейт : 384 Кбит/сек
Каналы : 6 каналов
Channel layout : L R C LFE Ls Rs
Частота : 48,0 КГц
Частота кадров : 31,250 кадров/сек (1536 SPF)
Битовая глубина : 16 бит
Метод сжатия : С потерями
Размер потока : 333 Мбайт (5%)
Заголовок : IdeaFilm
Язык : Russian
ServiceKind/String : Complete Main
Default : Да
Forced : Нет

Аудио #2
Идентификатор : 3
Формат : AC-3
Формат/Информация : Audio Coding 3
Идентификатор кодека : A_AC3
Продолжительность : 2 ч. 0 м.
Битрейт : 384 Кбит/сек
Каналы : 6 каналов
Частота : 48,0 КГц
Частота кадров : 31,250 кадров/сек (1536 SPF)
Метод сжатия : С потерями
Размер потока : 331 Мбайт (5%)
Язык : English
Default : Нет
Forced : Нет

Информация о торренте:
Размер содержимого: 6.5 GB
Скачан: 92 раза
Статус: -
Зарегистрирован на трекере: 2018-12-19 15:58
Скачать торрент


Поддержи раздачу — поставь лайк:
rainbow.n
2018-12-19 19:18
Скриншоты должны быть не в превью.

Согласно требованиям правил раздела HD, скриншоты должны быть выполнены в формате PNG.
Писать комментарии на нашем торрент-трекере могут только зарегистрированные пользователи.
Зарегистрируйтесь или авторизируйтесь на сайте.