»
»

Скачать фильм Дом, который построил Джек / The House That Jack Built (Ларс фон Триер) [2018, триллер, ужасы, драма, WEB-DLRip (1080p)] SUB - торрент

Скачать через торрент фильм вы можете, нажав на синюю кнопку. Фильм доступен на нашем торрент-трекере бесплатно, без регистрации и смс.

Статистика раздачи
815 [ 0 b/s ] ↑ 5.2 GB ↓ 1 [ 0 b/s ]
Автор Сообщение
Klayd X
2018-12-19 16:49
Дом, который построил Джек / The House That Jack Built

Дом, который построил Джек / The House That Jack Built Язык: Английский

Cубтитры: русские, английские

Формат: WEB-DLRip (1080p), MKV, H.264, AC3

Страна: Дания, Франция, Германия, Швеция

Режиссер: Ларс фон Триер

Жанр: триллер, ужасы, драма

Продолжительность: 02:30:49

Год выпуска: 2018

Роли озвучивали: Мэтт Диллон, Бруно Ганц, Ума Турман, Шиван Фэллон, Софи Гробёль, Райли Кио, Джереми Дэвис, Джек МакКензи, Эдвард Спелирс, Дэвид Бэйли и др.

Описание: История серийного убийцы по имени Джек разворачивается в Америке 70-х. За 12 лет блестящей «карьеры» Джеку встретятся назойливая попутчица, наивная подружка и другие очаровательные в своей глупости жертвы. Пять невероятных, до жути изобретательных и порой до смеха абсурдных убийств, к каждому из которых Джек относится как к настоящему произведению искусства.

[imdb=https://www.imdb.com/title/tt4003440/]__________

Видео: 1920x796 (2.40:1), 24.000 fps, AVC MPEG-4 (H.264), High@L4.0 ~4499 kbps, 0.123 bit/pixel
Аудио: 48 kHz, AC3 Dolby Digital, 3/2 (L,C,R,l,r) + LFE ch, ~384 kbps

Доп. информация: Реклама отсутствует.

MediaInfo
General
Unique ID : 194911121736241911635489265219152151945 (0x92A2843EE34E54DDA5A65C2125F08589)
Complete name : E:The House That Jack Built.2018_Klayd X.mkv
Format : Matroska
File size : 5.25 GiB
Duration : 2h 30mn
Overall bit rate : 4 982 Kbps
Encoded date : UTC 2018-12-18 05:23:46
Writing application : mkvmerge v5.8.0 ('No Sleep / Pillow') built on Sep 2 2012 15:37:04
Writing library : libebml v1.2.3 + libmatroska v1.3.0

Video
ID : 1
Format : AVC
Format/Info : Advanced Video Codec
Format profile : High@L4.0
Format settings, CABAC : Yes
Format settings, ReFrames : 5 frames
Muxing mode : Header stripping
Codec ID : V_MPEG4/ISO/AVC
Duration : 2h 30mn
Bit rate : 4 499 Kbps
Width : 1 920 pixels
Height : 796 pixels
Display aspect ratio : 2.40:1
Frame rate : 24.000 fps
Color space : YUV
Chroma subsampling : 4:2:0
Bit depth : 8 bits
Scan type : Progressive
Bits/(Pixel*Frame) : 0.123
Stream size : 4.74 GiB (90%)
Language : English
Color primaries : BT.709-5, BT.1361, IEC 61966-2-4, SMPTE RP177
Transfer characteristics : BT.709-5, BT.1361
Matrix coefficients : BT.709-5, BT.1361, IEC 61966-2-4 709, SMPTE RP177

Audio
ID : 2
Format : AC-3
Format/Info : Audio Coding 3
Mode extension : CM (complete main)
Muxing mode : Header stripping
Codec ID : A_AC3
Duration : 2h 30mn
Bit rate mode : Constant
Bit rate : 384 Kbps
Channel(s) : 6 channels
Channel positions : Front: L C R, Side: L R, LFE
Sampling rate : 48.0 KHz
Bit depth : 16 bits
Compression mode : Lossy
Delay relative to video : -42ms
Stream size : 414 MiB (8%)
Language : English

Text #1
ID : 3
Format : UTF-8
Codec ID : S_TEXT/UTF8
Codec ID/Info : UTF-8 Plain Text
Language : Russian

Text #2
ID : 4
Format : UTF-8
Codec ID : S_TEXT/UTF8
Codec ID/Info : UTF-8 Plain Text
Language : English
Интересные факты
Во время премьерного показа фильма на Каннском кинофестивале многие зрители покинули зал.

Изначально предполагалось снять мини-сериал на восемь эпизодов.

Информация о торренте:
Размер содержимого: 5.2 GB
Скачан: 1312 раз
Статус: Временная раздача
Зарегистрирован на трекере: 2018-12-19 15:49
Скачать торрент


Поддержи раздачу — поставь лайк:

Klayd X
2018-12-19 15:49
_________________________________________________________Интересного просмотра!
Писать комментарии на нашем торрент-трекере могут только зарегистрированные пользователи.
Зарегистрируйтесь или авторизируйтесь на сайте.