»
»

Скачать фильм Под розой / Bajo la Rosa (Хосе Рамос / Josue Ramos) [2017, триллер, криминал, драма, детектив, BDRip] DVO - торрент

Нажмите на синюю кнопку, чтобы скачать фильм через торрент бесплатно. Фильм доступен на нашем торрент-трекере бесплатно, без регистрации и смс.

Статистика раздачи
184 [ 160.0 KB/s ] ↑ 4.6 GB ↓ 0 [ 0 b/s ]
Автор Сообщение
ERNIE2010
2018-12-17 15:32
Под розой / Bajo la Rosa
Под розой  / Bajo la Rosa
Перевод: Любительский (двухголосый), субтитры: отсутствуют
Формат: BDRip, MKV, H.264, MP3
Страна: Испания
Режиссер: Хосе Рамос / Josue Ramos
Жанр: триллер, криминал, драма, детектив
Продолжительность: 01:39:01
Год выпуска: 2017
В ролях: Рамиро Блас, Педро Касабланк, Игнасио Фернандес, Элизабет Гелаберт, Зак Гомес, Микель Инсуа, Ева Ллорах, Карлес Мореу, Патрисия Ольмедо, Пьеро Олмедо, Мириам Рая.
Описание: Сара, дочь Оливера и Хулии внезапно исчезает. Дни проходят без новостей о девочке. Но однажды утром семья получает письмо от кого-то, кто утверждает, что удерживает Сару и хочет поговорить с ними той же ночью.

[imdb=https://www.imdb.com/title/tt6130310/]

Видео: 1920x816 (2.35:1), 24fps, MPEG4 Video (H264) High@L4 ~ 6 500 kbps avg, 0.173 bit/pixel
Аудио: 48 kHz, MPEG Layer 3, 2 ch, ~192.00 kbps avg
Доп. информация: 3 победы и 1 номинация:
Anatomy Crime and Horror Film Festival 2017
Horrorant Film Festival 'Fright Nights' 2017
Maryland International Film Festival 2017



MI
General
Unique ID : 234456362707131858648279602276345588280 (0xB062A72851D02A2B9F273A326C582A38)
Complete name : Bajo.La.Rosa.2017.mkv
Format : Matroska
Format version : Version 4 / Version 2
File size : 4.63 GiB
Duration : 1 h 39 min
Overall bit rate : 6 641 kb/s
Encoded date : UTC 2018-12-16 10:28:58
Writing application : mkvmerge v9.6.0 ('Slave To Your Mind') 64bit
Writing library : libebml v1.3.4 + libmatroska v1.4.5

Video
ID : 1
Format : AVC
Format/Info : Advanced Video Codec
Format profile : High@L4
Format settings, CABAC : Yes
Format settings, RefFrames : 4 frames
Codec ID : V_MPEG4/ISO/AVC
Duration : 1 h 39 min
Bit rate : 6 500 kb/s
Width : 1 920 pixels
Height : 816 pixels
Display aspect ratio : 2.35:1
Frame rate mode : Constant
Frame rate : 24.000 FPS
Color space : YUV
Chroma subsampling : 4:2:0
Bit depth : 8 bits
Scan type : Progressive
Bits/(Pixel*Frame) : 0.173
Stream size : 4.50 GiB (97%)
Writing library : x264 core 148 r2708 86b7198
Encoding settings : cabac=1 / ref=4 / deblock=1:0:0 / analyse=0x3:0x113 / me=hex / subme=7 / psy=1 / psy_rd=1.00:0.00 / mixed_ref=1 / me_range=16 / chroma_me=1 / trellis=1 / 8x8dct=1 / cqm=0 / deadzone=21,11 / fast_pskip=1 / chroma_qp_offset=-2 / threads=12 / lookahead_threads=2 / sliced_threads=0 / nr=0 / decimate=1 / interlaced=0 / bluray_compat=0 / constrained_intra=0 / bframes=3 / b_pyramid=2 / b_adapt=1 / b_bias=0 / direct=1 / weightb=1 / open_gop=0 / weightp=2 / keyint=240 / keyint_min=24 / scenecut=40 / intra_refresh=0 / rc_lookahead=40 / rc=2pass / mbtree=1 / bitrate=6500 / ratetol=1.0 / qcomp=0.60 / qpmin=0 / qpmax=69 / qpstep=4 / cplxblur=20.0 / qblur=0.5 / ip_ratio=1.40 / aq=1:1.00
Default : Yes
Forced : No
Color range : Limited
Color primaries : BT.709
Transfer characteristics : BT.709
Matrix coefficients : BT.709

Audio
ID : 2
Format : MPEG Audio
Format version : Version 1
Format profile : Layer 3
Codec ID : A_MPEG/L3
Codec ID/Hint : MP3
Duration : 1 h 39 min
Bit rate mode : Constant
Bit rate : 192 kb/s
Channel(s) : 2 channels
Sampling rate : 48.0 kHz
Frame rate : 41.667 FPS (1152 SPF)
Compression mode : Lossy
Stream size : 137 MiB (3%)
Default : Yes
Forced : No




Информация о торренте:
Размер содержимого: 4.6 GB
Скачан: 414 раз
Статус: Временная раздача
Зарегистрирован на трекере: 2018-12-17 14:32
Скачать торрент


Поддержи раздачу — поставь лайк:

klubnichka.biz
2018-12-18 18:51
По скриншотам уже сюжет понятен, атмосфера, герои, и - какое наказание понес злодей. Фильм - интересный, понравился. Актерская игра: на высоте, декорации - достойные. Спасибо за картинки - сэкономил время.
Джага47
2018-12-29 20:21
Странно...А мне показался,предсказуемым и ,каким-то пафосным,что-ли..Лысый так старательно рожи корчил...Интриги не узрела,только и ждала,когда ж развязка..Прежде,чем увидеть ,чей-то порок-посмотри на своих близких....Ну было уже..ИМХО! За фильм спасибки)) :thanks:
Писать комментарии на нашем торрент-трекере могут только зарегистрированные пользователи.
Зарегистрируйтесь или авторизируйтесь на сайте.