»
»

Скачать сериал Побег из тюрьмы Даннемора, 1 сезон 1-7 серии из 7 / Escape at Dannemora [IdeaFilm] (Бен Стиллер) [2018, драма, WEB-DLRip, Р] - торрент

Нажмите на синюю кнопку, чтобы скачать сериал через торрент бесплатно. Сериал доступен на нашем торрент-трекере бесплатно, без регистрации и смс.

Статистика раздачи
5 [ 0 b/s ] ↑ 6.4 GB ↓ 0 [ 0 b/s ]
Автор Сообщение
D4IVER
2018-11-18 20:00
Побег из тюрьмы Даннемора / Escape at Dannemora
Побег из тюрьмы Даннемора, 1 сезон 1-7 серии из 7 / Escape at Dannemora [IdeaFilm]
Перевод: Профессиональный (многоголосый, закадровый) IdeaFilm
Субтитры: отсутствуют
Формат: WEB-DLRip, AVI, XviD, AC3
Страна: США
Режиссер: Бен Стиллер
Жанр: Драма
Всего серий: 7
Продолжительность: 7 х ~ 01:00:00
Год выпуска: 2018

В ролях: Бенисио Дель Торо, Патриша Аркетт, Пол Дано, Бонни Хант, Эрик Ланж, Дэвид Морс, Майкл Бисли, Джереми Бобб

Описание: 51-летняя работница тюрьмы заводит романтические отношения с двумя заключенными и помогает им совершить побег.

[imdb=http://www.imdb.com/title/tt6866266/]

Видео: 720x300 (2.40:1), 23.976 fps, XviD MPEG-4 ~1706 kbps avg, 0.329 bit/pixel
Аудио #1 Rus: 48 kHz, AC3 Dolby Digital, 3/2 (L,C,R,l,r) + LFE ch, ~384 kbps

Внимание, присутствует реклама!

MediaInfo

Video
ID : 0
Format : MPEG-4 Visual
Format profile : Advanced Simple@L5
Format settings : BVOP2
Format settings, BVOP : 2
Format settings, QPel : No
Format settings, GMC : No warppoints
Format settings, Matrix : Default (H.263)
Muxing mode : Packed bitstream
Codec ID : XVID
Codec ID/Hint : XviD
Duration : 1 h 4 min
Bit rate : 1 706 kb/s
Width : 720 pixels
Height : 300 pixels
Display aspect ratio : 2.40:1
Frame rate : 23.976 (24000/1001) FPS
Color space : YUV
Chroma subsampling : 4:2:0
Bit depth : 8 bits
Scan type : Progressive
Compression mode : Lossy
Bits/(Pixel*Frame) : 0.329
Stream size : 784 MiB (81%)
Writing library : XviD 67

Audio
ID : 1
Format : AC-3
Format/Info : Audio Coding 3
Commercial name : Dolby Digital
Codec ID : 2000
Duration : 1 h 4 min
Bit rate mode : Constant
Bit rate : 384 kb/s
Channel(s) : 6 channels
Channel positions : Front: L C R, Side: L R, LFE
Sampling rate : 48.0 kHz
Frame rate : 31.250 FPS (1536 SPF)
Bit depth : 16 bits
Compression mode : Lossy
Stream size : 176 MiB (18%)
Alignment : Aligned on interleaves
Interleave, duration : 42 ms (1.00 video frame)
Interleave, preload duratio : 512 ms
Service kind : Complete Main

Информация о торренте:
Размер содержимого: 6.4 GB
Скачан: 1723 раза
Статус: Проверен
Зарегистрирован на трекере: 2019-01-04 01:01
Скачать торрент


Поддержи раздачу — поставь лайк:
demon844
2018-11-23 07:16
Хороший сериал ждем новых серий
gatti2010
2018-12-02 12:30
Ух тыы.. Давно ждал. Спасибо!!!!
mahmuletto
2019-01-05 14:10
Спасибо.
gnusmas74
2019-01-13 13:01
Вроде ничего так . На в последней серии сезона какая то муть пошла . Дали понять что будет куча сезонов
Писать комментарии на нашем торрент-трекере могут только зарегистрированные пользователи.
Зарегистрируйтесь или авторизируйтесь на сайте.