»
»

Скачать сериал Миднайт, Техас, 2 сезон 1-9 серии из 9 / Midnight, Texas [IdeaFilm] (Тим Эндрю, Роб Дж. Гринли) [2018, фэнтези, драма, детектив, WEB-DLRip, Р] - торрент

Скачать сериал бесплатно через торрент. Сериал доступен на нашем торрент-трекере бесплатно, без регистрации и смс.

Статистика раздачи
9 [ 267.0 KB/s ] ↑ 5.9 GB ↓ 0 [ 0 b/s ]
Автор Сообщение
D4IVER
2018-10-27 18:26
Миднайт, Техас / Midnight, Texas
Миднайт, Техас, 2 сезон 1-9 серии из 9 / Midnight, Texas [IdeaFilm]
Перевод: Профессиональный (многоголосый, закадровый) IdeaFilm
Субтитры: отсутствуют
Формат: WEB-DLRip, AVI, XviD, AC3
Страна: США
Режиссер: Тим Эндрю, Роб Дж. Гринли
Жанр: фэнтези, драма, детектив
Всего серий: 9
Продолжительность: 9 х ~ 00:44:00
Год выпуска: 2018

В ролях: Франсуа Арно, Дилан Брюс, Париса Фитц-Хенли, Ариэль Кеббел, Джейсон Льюис, Питер Менса, Сара Рамос, Юл Васкес, Бернардо Галлегос, Джейми Рэй Ньюман, Нестор Карбонелл, Джоэнн Кэмп

Описание: События мистической драмы развернутся в маленьком техасском городке Миднайт, ставшем безопасным пристанищем для вампиров, ведьм, экстрасенсов, киллеров и всех прочих, кто отличается от обычных людей. Всех их, включая ясновидцев, телепатов, ангелов с крыльями и прочую нечисть сослали в техасскую дыру, где они вынуждены сосуществовать в мире и согласии. Но однажды там происходит самое настоящее убийство, и теперь главному герою Манфреду предстоит разобраться, что случилось, и по возможности сохранить как мир, так и согласие.

[imdb=http://www.imdb.com/title/tt5464086/]

Видео: 720x400 (16:9), 23.976 fps, XviD MPEG-4 ~1777 kbps avg, 0.257 bit/pixel
Аудио #1 Rus: 48 kHz, AC3 Dolby Digital, 3/2 (L,C,R,l,r) + LFE ch, ~384 kbps

Внимание, присутствует реклама!

MediaInfo

Video
ID : 0
Format : MPEG-4 Visual
Format profile : Advanced Simple@L5
Format settings : BVOP2
Format settings, BVOP : 2
Format settings, QPel : No
Format settings, GMC : No warppoints
Format settings, Matrix : Default (H.263)
Muxing mode : Packed bitstream
Codec ID : XVID
Codec ID/Hint : XviD
Duration : 43 min 35 s
Bit rate : 1 777 kb/s
Width : 720 pixels
Height : 400 pixels
Display aspect ratio : 16:9
Frame rate : 23.976 (24000/1001) FPS
Color space : YUV
Chroma subsampling : 4:2:0
Bit depth : 8 bits
Scan type : Progressive
Compression mode : Lossy
Bits/(Pixel*Frame) : 0.257
Stream size : 554 MiB (82%)
Writing library : XviD 67

Audio
ID : 1
Format : AC-3
Format/Info : Audio Coding 3
Commercial name : Dolby Digital
Codec ID : 2000
Duration : 43 min 35 s
Bit rate mode : Constant
Bit rate : 384 kb/s
Channel(s) : 6 channels
Channel positions : Front: L C R, Side: L R, LFE
Sampling rate : 48.0 kHz
Frame rate : 31.250 FPS (1536 SPF)
Bit depth : 16 bits
Compression mode : Lossy
Stream size : 120 MiB (18%)
Alignment : Aligned on interleaves
Interleave, duration : 42 ms (1.00 video frame)
Interleave, preload duratio : 512 ms
Service kind : Complete Main

Информация о торренте:
Размер содержимого: 5.9 GB
Скачан: 1289 раз
Статус: Проверен
Зарегистрирован на трекере: 2019-01-09 16:50
Скачать торрент


Поддержи раздачу — поставь лайк:
Kleopatra772177.
2019-01-03 01:27
Писать комментарии на нашем торрент-трекере могут только зарегистрированные пользователи.
Зарегистрируйтесь или авторизируйтесь на сайте.