»
»

Скачать сериал Титаны, 1 сезон 1-11 серии из 11 / Titans [IdeaFilm] (Брэд Андерсон, Джон Фоусет) [2018, фантастика, фэнтези, боевик, приключения, WEB-DLRip, Р] - торрент

Скачать через торрент сериал вы можете, нажав на синюю кнопку. Сериал доступен на нашем торрент-трекере бесплатно, без регистрации и смс.

Статистика раздачи
6 [ 0 b/s ] ↑ 6.2 GB ↓ 8 [ 0 b/s ]
Автор Сообщение
D4IVER
2018-10-18 18:04
Титаны / Titans
Титаны, 1 сезон 1-11 серии из 11 / Titans [IdeaFilm]
Перевод: Профессиональный (многоголосый, закадровый) IdeaFilm
Субтитры: отсутствуют
Формат: WEB-DLRip, AVI, XviD, AC3
Страна: США
Режиссер: Брэд Андерсон, Джон Фоусет
Жанр: Фантастика, фэнтези, боевик, приключения
Всего серий: 11
Продолжительность: 11 х ~ 00:52:00
Год выпуска: 2018

В ролях: Брентон Туэйтс, Тиган Крофт, Анна Диоп, Райан Поттер, Минка Келли, Алан Ричсон, Каррен Уолтерс, Линдси Горт, Эйприл Боулби, Шеймус Девер, Дуэйн Мерфи, Конор Лесли

Описание: В надежде остановить своего отца — древнего демона Тригона — обладательница невероятных способностей девушка Рэйвен обращается за помощью к Робину. Бывший напарник Бэтмена теперь сам вершит правосудие на улицах Готэма, но, чтобы остановить зло, Рэйвен и Робину понадобится подмога.

[imdb=http://www.imdb.com/title/tt1043813/]

Видео: 720x360 (2.00:1), 23.976 fps, XviD MPEG-4 ~1650 kbps avg, 0.265 bit/pixel
Аудио #1 Rus: 48 kHz, AC3 Dolby Digital, 2/0 (L,R), ~192 kbps

Внимание, присутствует реклама!

MediaInfo

Video
ID : 0
Format : MPEG-4 Visual
Format profile : Advanced Simple@L5
Format settings : BVOP2
Format settings, BVOP : 2
Format settings, QPel : No
Format settings, GMC : No warppoints
Format settings, Matrix : Default (H.263)
Muxing mode : Packed bitstream
Codec ID : XVID
Codec ID/Hint : XviD
Duration : 51 min 21 s
Bit rate : 1 650 kb/s
Width : 720 pixels
Height : 360 pixels
Display aspect ratio : 2.000
Frame rate : 23.976 (24000/1001) FPS
Color space : YUV
Chroma subsampling : 4:2:0
Bit depth : 8 bits
Scan type : Progressive
Compression mode : Lossy
Bits/(Pixel*Frame) : 0.265
Stream size : 606 MiB (89%)
Writing library : XviD 67

Audio
ID : 1
Format : AC-3
Format/Info : Audio Coding 3
Commercial name : Dolby Digital
Codec ID : 2000
Duration : 51 min 21 s
Bit rate mode : Constant
Bit rate : 192 kb/s
Channel(s) : 2 channels
Channel positions : Front: L R
Sampling rate : 48.0 kHz
Frame rate : 31.250 FPS (1536 SPF)
Bit depth : 16 bits
Compression mode : Lossy
Stream size : 70.5 MiB (10%)
Alignment : Aligned on interleaves
Interleave, duration : 42 ms (1.00 video frame)
Interleave, preload duratio : 512 ms
Service kind : Complete Main

Информация о торренте:
Размер содержимого: 6.2 GB
Скачан: 1694 раза
Статус: Проверен
Зарегистрирован на трекере: 2019-01-12 15:22
Скачать торрент


Поддержи раздачу — поставь лайк:
Kleopatra772177.
2019-01-03 01:18
Писать комментарии на нашем торрент-трекере могут только зарегистрированные пользователи.
Зарегистрируйтесь или авторизируйтесь на сайте.