»
»

Скачать сериал ФБР, 1 сезон 1-10 серии из 22 / FBI [IdeaFilm] (Артур В. Форни, Ник Гомез, Нильс Арден Оплев) [2018, драма, криминал, WEB-DLRip, Р] - торрент

Бесплатные торренты всегда на нашем сайте и в хорошем качестве! Сериал доступен на нашем торрент-трекере бесплатно, без регистрации и смс.

Статистика раздачи
20 [ 0 b/s ] ↑ 6.6 GB ↓ 8 [ 0 b/s ]
Автор Сообщение
D4IVER
2018-09-26 23:43
ФБР / FBI
ФБР, 1 сезон 1-10 серии из 22 / FBI [IdeaFilm]
Перевод: Профессиональный (многоголосый, закадровый) IdeaFilm
Субтитры: отсутствуют
Формат: WEB-DLRip, AVI, XviD, AC3
Страна: США
Режиссер: Артур В. Форни, Ник Гомез, Нильс Арден Оплев
Жанр: Драма, криминал
Всего серий: 22
Продолжительность: 10 х ~ 00:45:00
Год выпуска: 2018

В ролях: Мисси Перегрим, Зико Заки, Эбони Ноэль, Джереми Систо, Села Уорд, Джон ДиРенцо, Антула Кациматидес, Джейсон Кауфман, Марк МакКиннон

Описание: Нью-Йорк. Огромный город, жизнь в котором кипит. Каждый день отделение полиции борется с десятками тысяч случаев мелких и крупных преступлений. Самые серьезные дела берут на себя агенты федерального бюро расследований. Будни этих людей по-настоящему сложны, опасны и интересны одновременно. Проект "ФБР" сконцентрирован на повседневной службе агентов бюро, которые работают над раскрытием дел, поступающих один за другим без остановки,а также проводят опасные операции по захвату подозреваемых.

[imdb=http://www.imdb.com/title/tt7491982/]

Видео: 720x400 (16:9), 23.976 fps, XviD MPEG-4 ~1782 kbps avg, 0.258 bit/pixel
Аудио #1 Rus: 48 kHz, AC3 Dolby Digital, 3/2 (L,C,R,l,r) + LFE ch, ~384 kbps

Внимание, присутствует реклама!

MediaInfo

Video
ID : 0
Format : MPEG-4 Visual
Format profile : Advanced Simple@L5
Format settings : BVOP2
Format settings, BVOP : 2
Format settings, QPel : No
Format settings, GMC : No warppoints
Format settings, Matrix : Default (H.263)
Muxing mode : Packed bitstream
Codec ID : XVID
Codec ID/Hint : XviD
Duration : 44 min 3 s
Bit rate : 1 782 kb/s
Width : 720 pixels
Height : 400 pixels
Display aspect ratio : 16:9
Frame rate : 23.976 (24000/1001) FPS
Color space : YUV
Chroma subsampling : 4:2:0
Bit depth : 8 bits
Scan type : Progressive
Compression mode : Lossy
Bits/(Pixel*Frame) : 0.258
Stream size : 562 MiB (82%)
Writing library : XviD 67

Audio
ID : 1
Format : AC-3
Format/Info : Audio Coding 3
Commercial name : Dolby Digital
Codec ID : 2000
Duration : 44 min 3 s
Bit rate mode : Constant
Bit rate : 384 kb/s
Channel(s) : 6 channels
Channel positions : Front: L C R, Side: L R, LFE
Sampling rate : 48.0 kHz
Frame rate : 31.250 FPS (1536 SPF)
Bit depth : 16 bits
Compression mode : Lossy
Stream size : 121 MiB (18%)
Alignment : Aligned on interleaves
Interleave, duration : 42 ms (1.00 video frame)
Interleave, preload duratio : 512 ms
Service kind : Complete Main

Информация о торренте:
Размер содержимого: 6.6 GB
Скачан: 2055 раз
Статус: Обновляемая раздача
Зарегистрирован на трекере: 2018-12-13 21:32
Скачать торрент


Поддержи раздачу — поставь лайк:
E-mail:
* Это обновляемая раздача и мы можем вас информировать об обновлении торрента в ней.

Ягеловв
2018-10-21 09:39
Спасибо..\
BenasD
2018-12-12 19:46
Хороший сериал. спасибо
Kleopatra772177.
2018-12-15 01:27
«ФБР» получают дополнительные эпизоды

CBS заказали дополнительные эпизоды к своей новой драме «ФБР» («FBI») от Дика Вольфа. Телеканал не назвал точное количество дополнительных эпизодов, назвав это просто продлением до полного сезона. По стандартам телевидения это может говорить о 9 дополнительных эпизодах, доводя общее их количество в сезоне до 22.

Расширение сезона не стало сюрпризом, после премьеры «ФБР» от Universal Television и CBS Television Studios показал себя как самая популярная новинка с 13.6 миллионами просмотров. На первой же неделе эфира проект встал на второе место по рейтингам среди всех драм CBS (12.9 миллионов просмотров в день премьеры+3 дня), уступив только ветеранам «Морской полиции», и на третье место среди всех проектов канала, уступив также легендарной «Теории Большого Взрыва».На второй и третьих неделях шоу продемонстрировало стабильное удержание зрительской аудитории (93% для второй и 97% для третьей недели).

В центре внимания сериала функционирование Нью-Йоркского отделения ФБР. В сериале снимаются Мисси Перегрим, Зико Заки, Эбони Ноэль, Джереми Систо и Села Вард.

Источник: ulitka

11 серия 2019-01-08 A New Dawn
Дьякон Николай
2018-12-15 16:49
Цитата:
о 9 дополнительных эпизодах, доводя общее их количество в сезоне до 22.

как так-то :?
У кого-то с арифметикой туго,двойки были поди в четверти.
Анонсировано 11 серии, если +9 то будет 20 серии итого, а не 22.
Писать комментарии на нашем торрент-трекере могут только зарегистрированные пользователи.
Зарегистрируйтесь или авторизируйтесь на сайте.